  0
SECTION
  2
HEADER
  9
$ACADVER
  1
AC1015
  9
$ACADMAINTVER
 70
     6
  9
$DWGCODEPAGE
  3
ANSI_1250
  9
$INSBASE
 10
0.0
 20
0.0
 30
0.0
  9
$EXTMIN
 10
0.0
 20
0.0
 30
0.0
  9
$EXTMAX
 10
1485.0
 20
1050.0
 30
0.0
  9
$LIMMIN
 10
0.0
 20
0.0
  9
$LIMMAX
 10
1485.0
 20
1050.0
  9
$ORTHOMODE
 70
     0
  9
$REGENMODE
 70
     1
  9
$FILLMODE
 70
     1
  9
$QTEXTMODE
 70
     0
  9
$MIRRTEXT
 70
     1
  9
$LTSCALE
 40
5.0
  9
$ATTMODE
 70
     1
  9
$TEXTSIZE
 40
10.5833333333
  9
$TRACEWID
 40
1.0
  9
$TEXTSTYLE
  7
STANDARD
  9
$CLAYER
  8
0
  9
$CELTYPE
  6
ByLayer
  9
$CECOLOR
 62
   256
  9
$CELTSCALE
 40
1.0
  9
$DISPSILH
 70
     0
  9
$DIMSCALE
 40
1.0
  9
$DIMASZ
 40
7.9375
  9
$DIMEXO
 40
5.0
  9
$DIMDLI
 40
3.75
  9
$DIMRND
 40
0.0
  9
$DIMDLE
 40
0.0
  9
$DIMEXE
 40
5.0
  9
$DIMTP
 40
0.0
  9
$DIMTM
 40
0.0
  9
$DIMTXT
 40
10.5833333333
  9
$DIMCEN
 40
2.5
  9
$DIMTSZ
 40
0.0
  9
$DIMTOL
 70
     0
  9
$DIMLIM
 70
     0
  9
$DIMTIH
 70
     1
  9
$DIMTOH
 70
     1
  9
$DIMSE1
 70
     0
  9
$DIMSE2
 70
     0
  9
$DIMTAD
 70
     1
  9
$DIMZIN
 70
     0
  9
$DIMBLK
  1

  9
$DIMASO
 70
     1
  9
$DIMSHO
 70
     1
  9
$DIMPOST
  1

  9
$DIMAPOST
  1

  9
$DIMALT
 70
     0
  9
$DIMALTD
 70
     3
  9
$DIMALTF
 40
0.0393700787
  9
$DIMLFAC
 40
1.0
  9
$DIMTOFL
 70
     1
  9
$DIMTVP
 40
0.0
  9
$DIMTIX
 70
     0
  9
$DIMSOXD
 70
     0
  9
$DIMSAH
 70
     0
  9
$DIMBLK1
  1

  9
$DIMBLK2
  1

  9
$DIMSTYLE
  2
ISO-25
  9
$DIMCLRD
 70
     0
  9
$DIMCLRE
 70
     0
  9
$DIMCLRT
 70
     0
  9
$DIMTFAC
 40
1.0
  9
$DIMGAP
 40
7.62
  9
$DIMJUST
 70
     0
  9
$DIMSD1
 70
     0
  9
$DIMSD2
 70
     0
  9
$DIMTOLJ
 70
     0
  9
$DIMTZIN
 70
     0
  9
$DIMALTZ
 70
     0
  9
$DIMALTTZ
 70
     0
  9
$DIMUPT
 70
     0
  9
$DIMDEC
 70
     1
  9
$DIMTDEC
 70
     1
  9
$DIMALTU
 70
     2
  9
$DIMALTTD
 70
     3
  9
$DIMTXSTY
  7
STANDARD
  9
$DIMAUNIT
 70
     0
  9
$DIMADEC
 70
     1
  9
$DIMALTRND
 40
0.0
  9
$DIMAZIN
 70
     0
  9
$DIMDSEP
 70
    44
  9
$DIMATFIT
 70
     3
  9
$DIMFRAC
 70
     0
  9
$DIMLDRBLK
  1

  9
$DIMLUNIT
 70
     2
  9
$DIMLWD
 70
    -2
  9
$DIMLWE
 70
    -2
  9
$DIMTMOVE
 70
     0
  9
$LUNITS
 70
     2
  9
$LUPREC
 70
     2
  9
$SKETCHINC
 40
1.0
  9
$FILLETRAD
 40
10.0
  9
$AUNITS
 70
     0
  9
$AUPREC
 70
     2
  9
$MENU
  1
.
  9
$ELEVATION
 40
0.0
  9
$PELEVATION
 40
0.0
  9
$THICKNESS
 40
0.0
  9
$LIMCHECK
 70
     0
  9
$CHAMFERA
 40
10.0
  9
$CHAMFERB
 40
10.0
  9
$CHAMFERC
 40
20.0
  9
$CHAMFERD
 40
0.0
  9
$SKPOLY
 70
     0
  9
$TDCREATE
 40
2456608.021419445
  9
$TDUCREATE
 40
2456607.979752778
  9
$TDUPDATE
 40
2456693.499868495
  9
$TDUUPDATE
 40
2456693.458201829
  9
$TDINDWG
 40
0.0000000116
  9
$TDUSRTIMER
 40
2456693.453907975
  9
$USRTIMER
 70
     1
  9
$ANGBASE
 50
0.0
  9
$ANGDIR
 70
     0
  9
$PDMODE
 70
     0
  9
$PDSIZE
 40
-1.0
  9
$PLINEWID
 40
0.0
  9
$SPLFRAME
 70
     0
  9
$SPLINETYPE
 70
     6
  9
$SPLINESEGS
 70
     8
  9
$HANDSEED
  5
45C
  9
$SURFTAB1
 70
     6
  9
$SURFTAB2
 70
     6
  9
$SURFTYPE
 70
     6
  9
$SURFU
 70
     6
  9
$SURFV
 70
     6
  9
$UCSBASE
  2

  9
$UCSNAME
  2

  9
$UCSORG
 10
0.0
 20
0.0
 30
0.0
  9
$UCSXDIR
 10
1.0
 20
0.0
 30
0.0
  9
$UCSYDIR
 10
0.0
 20
1.0
 30
0.0
  9
$UCSORTHOREF
  2

  9
$UCSORTHOVIEW
 70
     0
  9
$UCSORGTOP
 10
0.0
 20
0.0
 30
0.0
  9
$UCSORGBOTTOM
 10
0.0
 20
0.0
 30
0.0
  9
$UCSORGLEFT
 10
0.0
 20
0.0
 30
0.0
  9
$UCSORGRIGHT
 10
0.0
 20
0.0
 30
0.0
  9
$UCSORGFRONT
 10
0.0
 20
0.0
 30
0.0
  9
$UCSORGBACK
 10
0.0
 20
0.0
 30
0.0
  9
$PUCSBASE
  2

  9
$PUCSNAME
  2

  9
$PUCSORG
 10
0.0
 20
0.0
 30
0.0
  9
$PUCSXDIR
 10
1.0
 20
0.0
 30
0.0
  9
$PUCSYDIR
 10
0.0
 20
1.0
 30
0.0
  9
$PUCSORTHOREF
  2

  9
$PUCSORTHOVIEW
 70
     0
  9
$PUCSORGTOP
 10
0.0
 20
0.0
 30
0.0
  9
$PUCSORGBOTTOM
 10
0.0
 20
0.0
 30
0.0
  9
$PUCSORGLEFT
 10
0.0
 20
0.0
 30
0.0
  9
$PUCSORGRIGHT
 10
0.0
 20
0.0
 30
0.0
  9
$PUCSORGFRONT
 10
0.0
 20
0.0
 30
0.0
  9
$PUCSORGBACK
 10
0.0
 20
0.0
 30
0.0
  9
$USERI1
 70
     0
  9
$USERI2
 70
     0
  9
$USERI3
 70
     0
  9
$USERI4
 70
     0
  9
$USERI5
 70
     0
  9
$USERR1
 40
0.0
  9
$USERR2
 40
0.0
  9
$USERR3
 40
0.0
  9
$USERR4
 40
0.0
  9
$USERR5
 40
0.0
  9
$WORLDVIEW
 70
     1
  9
$SHADEDGE
 70
     3
  9
$SHADEDIF
 70
    70
  9
$TILEMODE
 70
     1
  9
$MAXACTVP
 70
    64
  9
$PINSBASE
 10
0.0
 20
0.0
 30
0.0
  9
$PLIMCHECK
 70
     0
  9
$PEXTMIN
 10
1.000000000000000E+20
 20
1.000000000000000E+20
 30
1.000000000000000E+20
  9
$PEXTMAX
 10
-1.000000000000000E+20
 20
-1.000000000000000E+20
 30
-1.000000000000000E+20
  9
$PLIMMIN
 10
0.0
 20
0.0
  9
$PLIMMAX
 10
0.0
 20
0.0
  9
$UNITMODE
 70
     0
  9
$VISRETAIN
 70
     1
  9
$PLINEGEN
 70
     0
  9
$PSLTSCALE
 70
     1
  9
$TREEDEPTH
 70
  3020
  9
$CMLSTYLE
  2
Standard
  9
$CMLJUST
 70
     0
  9
$CMLSCALE
 40
20.0
  9
$PROXYGRAPHICS
 70
     1
  9
$MEASUREMENT
 70
     1
  9
$CELWEIGHT
370
    -1
  9
$ENDCAPS
280
     0
  9
$JOINSTYLE
280
     0
  9
$LWDISPLAY
290
     1
  9
$INSUNITS
 70
     4
  9
$HYPERLINKBASE
  1

  9
$STYLESHEET
  1

  9
$XEDIT
290
     1
  9
$CEPSNTYPE
380
     0
  9
$PSTYLEMODE
290
     1
  9
$FINGERPRINTGUID
  2
{B9513F1B-7233-42E1-B124-E91EE8085172}
  9
$VERSIONGUID
  2
{FAEB1C32-E019-11D5-929B-00C0DF256EC4}
  9
$EXTNAMES
290
     1
  9
$PSVPSCALE
 40
0.0
  9
$OLESTARTUP
290
     0
  0
ENDSEC
  0
SECTION
  2
CLASSES
  0
CLASS
  1
ACDBDICTIONARYWDFLT
  2
AcDbDictionaryWithDefault
  3
ObjectDBX Classes
 90
        0
280
     0
281
     0
  0
CLASS
  1
VISUALSTYLE
  2
AcDbVisualStyle
  3
ObjectDBX Classes
 90
     4095
280
     0
281
     0
  0
CLASS
  1
MATERIAL
  2
AcDbMaterial
  3
ObjectDBX Classes
 90
     1153
280
     0
281
     0
  0
CLASS
  1
SCALE
  2
AcDbScale
  3
ObjectDBX Classes
 90
     1153
280
     0
281
     0
  0
CLASS
  1
TABLESTYLE
  2
AcDbTableStyle
  3
ObjectDBX Classes
 90
     4095
280
     0
281
     0
  0
CLASS
  1
RASTERVARIABLES
  2
AcDbRasterVariables
  3
ISM
 90
        0
280
     0
281
     0
  0
CLASS
  1
DICTIONARYVAR
  2
AcDbDictionaryVar
  3
ObjectDBX Classes
 90
        0
280
     0
281
     0
  0
CLASS
  1
CELLSTYLEMAP
  2
AcDbCellStyleMap
  3
ObjectDBX Classes
 90
     1152
280
     0
281
     0
  0
CLASS
  1
ACDBPLACEHOLDER
  2
AcDbPlaceHolder
  3
ObjectDBX Classes
 90
        0
280
     0
281
     0
  0
CLASS
  1
LAYOUT
  2
AcDbLayout
  3
ObjectDBX Classes
 90
        0
280
     0
281
     0
  0
ENDSEC
  0
SECTION
  2
TABLES
  0
TABLE
  2
VPORT
  5
8
330
0
100
AcDbSymbolTable
 70
     1
  0
VPORT
  5
29
330
8
100
AcDbSymbolTableRecord
100
AcDbViewportTableRecord
  2
*Active
 70
     0
 10
0.0
 20
0.0
 11
1.0
 21
1.0
 12
644.0116030534351
 22
853.330992366412
 13
0.0
 23
0.0
 14
10.0
 24
10.0
 15
10.0
 25
10.0
 16
0.0
 26
0.0
 36
1.0
 17
0.0
 27
0.0
 37
0.0
 40
685.4399999999999
 41
2.05852417302799
 42
50.0
 43
0.0
 44
0.0
 50
0.0
 51
0.0
 71
    16
 72
  2000
 73
     1
 74
     3
 75
     0
 76
     0
 77
     0
 78
     0
281
     0
 65
     1
110
0.0
120
0.0
130
0.0
111
1.0
121
0.0
131
0.0
112
0.0
122
1.0
132
0.0
 79
     0
146
0.0
  0
ENDTAB
  0
TABLE
  2
LTYPE
  5
5
330
0
100
AcDbSymbolTable
 70
     8
  0
LTYPE
  5
14
330
5
100
AcDbSymbolTableRecord
100
AcDbLinetypeTableRecord
  2
ByBlock
 70
     0
  3

 72
    65
 73
     0
 40
0.0
  0
LTYPE
  5
15
330
5
100
AcDbSymbolTableRecord
100
AcDbLinetypeTableRecord
  2
ByLayer
 70
     0
  3

 72
    65
 73
     0
 40
0.0
  0
LTYPE
  5
16
330
5
100
AcDbSymbolTableRecord
100
AcDbLinetypeTableRecord
  2
Continuous
 70
     0
  3
Solid line
 72
    65
 73
     0
 40
0.0
  0
LTYPE
  5
3F
330
5
100
AcDbSymbolTableRecord
100
AcDbLinetypeTableRecord
  2
SLD-Solid
 70
     0
  3
SolidWorks Line Style
 72
    65
 73
     0
 40
0.0
  0
LTYPE
  5
40
330
5
100
AcDbSymbolTableRecord
100
AcDbLinetypeTableRecord
  2
SLD-Dashed
 70
     0
  3
SolidWorks Line Style
 72
    65
 73
     2
 40
1.905
 49
1.27
 74
     0
 49
-0.635
 74
     0
  0
LTYPE
  5
41
330
5
100
AcDbSymbolTableRecord
100
AcDbLinetypeTableRecord
  2
SLD-Phantom
 70
     0
  3
SolidWorks Line Style
 72
    65
 73
     6
 40
12.7
 49
6.35
 74
     0
 49
-1.27
 74
     0
 49
1.27
 74
     0
 49
-1.27
 74
     0
 49
1.27
 74
     0
 49
-1.27
 74
     0
  0
LTYPE
  5
42
330
5
100
AcDbSymbolTableRecord
100
AcDbLinetypeTableRecord
  2
SLD-Chain
 70
     0
  3
SolidWorks Line Style
 72
    65
 73
     4
 40
10.16
 49
6.35
 74
     0
 49
-1.27
 74
     0
 49
1.27
 74
     0
 49
-1.27
 74
     0
  0
LTYPE
  5
43
330
5
100
AcDbSymbolTableRecord
100
AcDbLinetypeTableRecord
  2
SLD-Center
 70
     0
  3
SolidWorks Line Style
 72
    65
 73
     4
 40
19.05
 49
15.24
 74
     0
 49
-1.27
 74
     0
 49
1.27
 74
     0
 49
-1.27
 74
     0
  0
LTYPE
  5
44
330
5
100
AcDbSymbolTableRecord
100
AcDbLinetypeTableRecord
  2
SLD-Stitch
 70
     0
  3
SolidWorks Line Style
 72
    65
 73
     2
 40
0.635
 49
0.0
 74
     0
 49
-0.635
 74
     0
  0
LTYPE
  5
45
330
5
100
AcDbSymbolTableRecord
100
AcDbLinetypeTableRecord
  2
SLD-Thin-Thick-Chain
 70
     0
  3
SolidWorks Line Style
 72
    65
 73
     4
 40
10.16
 49
6.35
 74
     0
 49
-1.27
 74
     0
 49
1.27
 74
     0
 49
-1.27
 74
     0
  0
ENDTAB
  0
TABLE
  2
LAYER
  5
2
330
0
100
AcDbSymbolTable
 70
    11
  0
LAYER
  5
10
330
2
100
AcDbSymbolTableRecord
100
AcDbLayerTableRecord
  2
0
 70
     0
 62
     7
  6
Continuous
370
    -3
390
F
  0
LAYER
  5
46
330
2
100
AcDbSymbolTableRecord
100
AcDbLayerTableRecord
  2
FORMAT
 70
     0
 62
     7
  6
SLD-Solid
370
    -3
390
F
  0
LAYER
  5
47
330
2
100
AcDbSymbolTableRecord
100
AcDbLayerTableRecord
  2
SLD-0_0
 70
     0
 62
   179
  6
SLD-Solid
370
    -3
390
F
  0
LAYER
  5
48
330
2
100
AcDbSymbolTableRecord
100
AcDbLayerTableRecord
  2
WYMIARY
 70
     0
 62
     2
  6
SLD-Solid
370
    -3
390
F
  0
LAYER
  5
49
330
2
100
AcDbSymbolTableRecord
100
AcDbLayerTableRecord
  2
ZAGECIA
 70
     0
 62
     5
  6
SLD-Chain
370
    -3
390
F
  0
LAYER
  5
4A
330
2
100
AcDbSymbolTableRecord
100
AcDbLayerTableRecord
  2
SLD-0
 70
     0
 62
   179
  6
SLD-Solid
370
    -3
390
F
  0
LAYER
  5
4B
330
2
100
AcDbSymbolTableRecord
100
AcDbLayerTableRecord
  2
BLK
 70
     0
 62
     7
  6
SLD-Solid
370
    15
390
F
  0
LAYER
  5
4C
330
2
100
AcDbSymbolTableRecord
100
AcDbLayerTableRecord
  2
BLUE
 70
     0
 62
     5
  6
SLD-Chain
370
    -3
390
F
  0
LAYER
  5
4D
330
2
100
AcDbSymbolTableRecord
100
AcDbLayerTableRecord
  2
YELLOW
 70
     0
 62
     2
  6
SLD-Solid
370
    -3
390
F
  0
LAYER
  5
4E
330
2
100
AcDbSymbolTableRecord
100
AcDbLayerTableRecord
  2
BLACK
 70
     0
 62
   179
  6
SLD-Solid
370
    -3
390
F
  0
LAYER
  5
453
330
2
100
AcDbSymbolTableRecord
100
AcDbLayerTableRecord
  2
Defpoints
 70
     0
 62
     7
  6
Continuous
290
     0
370
    -3
390
F
  0
ENDTAB
  0
TABLE
  2
STYLE
  5
3
330
0
100
AcDbSymbolTable
 70
     3
  0
STYLE
  5
11
330
3
100
AcDbSymbolTableRecord
100
AcDbTextStyleTableRecord
  2
STANDARD
 70
     0
 40
0.0
 41
1.0
 50
0.0
 71
     0
 42
10.5833333333
  3
GOTHIC.TTF
  4

1001
ACAD
1000
CENTURY GOTHIC
1071
       34
  0
STYLE
  5
72
330
3
100
AcDbSymbolTableRecord
100
AcDbTextStyleTableRecord
  2
SLDTEXTSTYLE0
 70
     0
 40
0.0
 41
0.913
 50
0.0
 71
     0
 42
0.2
  3
GOTHIC.TTF
  4

1001
ACAD
1000
Century Gothic
1071
      290
  0
STYLE
  5
92
330
3
100
AcDbSymbolTableRecord
100
AcDbTextStyleTableRecord
  2
SLDTEXTSTYLE1
 70
     0
 40
0.0
 41
0.913
 50
0.0
 71
     0
 42
0.2
  3
GOTHIC.TTF
  4
bigfont
1001
ACAD
1000
Century Gothic
1071
      290
  0
ENDTAB
  0
TABLE
  2
VIEW
  5
6
330
0
100
AcDbSymbolTable
 70
     0
  0
ENDTAB
  0
TABLE
  2
UCS
  5
7
330
0
100
AcDbSymbolTable
 70
     0
  0
ENDTAB
  0
TABLE
  2
APPID
  5
9
330
0
100
AcDbSymbolTable
 70
     1
  0
APPID
  5
12
330
9
100
AcDbSymbolTableRecord
100
AcDbRegAppTableRecord
  2
ACAD
 70
     0
  0
ENDTAB
  0
TABLE
  2
DIMSTYLE
  5
A
330
0
100
AcDbSymbolTable
 70
     6
100
AcDbDimStyleTable
  0
DIMSTYLE
105
27
330
A
100
AcDbSymbolTableRecord
100
AcDbDimStyleTableRecord
  2
ISO-25
 70
     0
 41
2.5
 42
0.625
 43
3.75
 44
1.25
 73
     0
 74
     0
 77
     1
 78
     8
140
2.5
141
2.5
143
0.0393700787
147
0.625
171
     3
172
     1
178
     0
271
     2
272
     2
274
     3
278
    44
283
     0
284
     8
340
11
  0
DIMSTYLE
105
15B
102
{ACAD_REACTORS
330
15A
330
174
330
193
330
19C
330
1C0
330
1CA
102
}
330
A
100
AcDbSymbolTableRecord
100
AcDbDimStyleTableRecord
  2
SLDDIMSTYLE0
 70
     0
 41
7.9375
 44
0.0
 45
0.000000001
 73
     0
 74
     0
 77
     1
 78
    12
 79
     3
140
7.9375
144
0.5
147
1.984375
173
     1
178
     0
271
     1
272
     1
276
     2
284
    12
340
72
  0
DIMSTYLE
105
168
102
{ACAD_REACTORS
330
167
330
17F
330
189
330
1A8
330
1B4
102
}
330
A
100
AcDbSymbolTableRecord
100
AcDbDimStyleTableRecord
  2
SLDDIMSTYLE1
 70
     0
 41
7.9375
 44
0.0
 45
0.000000001
 73
     0
 74
     0
 77
     1
 78
    12
 79
     3
140
7.9375
144
0.5
147
1.984375
172
     1
173
     1
178
     0
271
     1
272
     1
276
     2
284
    12
289
     0
340
72
  0
DIMSTYLE
105
1D5
330
A
100
AcDbSymbolTableRecord
100
AcDbDimStyleTableRecord
  2
SLDDIMSTYLE2
 70
     0
 41
7.9375
 44
0.0
 45
0.000000001
140
0.0
146
7.9375
147
0.0
173
     1
178
     0
271
     0
272
     0
276
     2
340
11
  0
DIMSTYLE
105
366
330
A
100
AcDbSymbolTableRecord
100
AcDbDimStyleTableRecord
  2
SLDDIMSTYLE3
 70
     0
 41
7.9375
 44
0.0
 45
0.000000001
 73
     0
 74
     0
 77
     1
 78
    12
 79
     3
140
7.9375
144
0.2
147
1.984375
172
     1
173
     1
178
     0
271
     1
272
     1
276
     2
284
    12
289
     0
340
72
  0
DIMSTYLE
105
38B
330
A
100
AcDbSymbolTableRecord
100
AcDbDimStyleTableRecord
  2
SLDDIMSTYLE4
 70
     0
 41
7.9375
 44
0.0
 45
0.000000001
 73
     0
 74
     0
 77
     1
 78
    12
 79
     3
140
7.9375
144
0.2
147
1.984375
173
     1
178
     0
271
     1
272
     1
276
     2
284
    12
340
72
  0
ENDTAB
  0
TABLE
  2
BLOCK_RECORD
  5
1
330
0
100
AcDbSymbolTable
 70
    39
  0
BLOCK_RECORD
  5
1F
330
1
100
AcDbSymbolTableRecord
100
AcDbBlockTableRecord
  2
*Model_Space
340
22
  0
BLOCK_RECORD
  5
1B
330
1
100
AcDbSymbolTableRecord
100
AcDbBlockTableRecord
  2
*Paper_Space
340
1E
  0
BLOCK_RECORD
  5
23
330
1
100
AcDbSymbolTableRecord
100
AcDbBlockTableRecord
  2
*Paper_Space0
340
26
  0
BLOCK_RECORD
  5
80
330
1
100
AcDbSymbolTableRecord
100
AcDbBlockTableRecord
  2
SW_NOTE_11
340
0
102
{BLKREFS
331
0
102
}
  0
BLOCK_RECORD
  5
94
330
1
100
AcDbSymbolTableRecord
100
AcDbBlockTableRecord
  2
SW_TABLEANNOTATION_0
340
0
102
{BLKREFS
331
0
102
}
  0
BLOCK_RECORD
  5
15C
330
1
100
AcDbSymbolTableRecord
100
AcDbBlockTableRecord
  2
_D
340
0
  0
BLOCK_RECORD
  5
169
330
1
100
AcDbSymbolTableRecord
100
AcDbBlockTableRecord
  2
_D_1
340
0
  0
BLOCK_RECORD
  5
175
330
1
100
AcDbSymbolTableRecord
100
AcDbBlockTableRecord
  2
_D_2
340
0
  0
BLOCK_RECORD
  5
180
330
1
100
AcDbSymbolTableRecord
100
AcDbBlockTableRecord
  2
_D_3
340
0
  0
BLOCK_RECORD
  5
18A
330
1
100
AcDbSymbolTableRecord
100
AcDbBlockTableRecord
  2
_D_4
340
0
  0
BLOCK_RECORD
  5
194
330
1
100
AcDbSymbolTableRecord
100
AcDbBlockTableRecord
  2
_D_5
340
0
  0
BLOCK_RECORD
  5
19D
330
1
100
AcDbSymbolTableRecord
100
AcDbBlockTableRecord
  2
_D_6
340
0
  0
BLOCK_RECORD
  5
1A9
330
1
100
AcDbSymbolTableRecord
100
AcDbBlockTableRecord
  2
_D_7
340
0
  0
BLOCK_RECORD
  5
1B5
330
1
100
AcDbSymbolTableRecord
100
AcDbBlockTableRecord
  2
_D_8
340
0
  0
BLOCK_RECORD
  5
1C1
330
1
100
AcDbSymbolTableRecord
100
AcDbBlockTableRecord
  2
_D_9
340
0
  0
BLOCK_RECORD
  5
1CB
330
1
100
AcDbSymbolTableRecord
100
AcDbBlockTableRecord
  2
_D_10
340
0
  0
BLOCK_RECORD
  5
200
330
1
100
AcDbSymbolTableRecord
100
AcDbBlockTableRecord
  2
SW_CENTERMARKSYMBOL_0
340
0
102
{BLKREFS
331
20B
102
}
  0
BLOCK_RECORD
  5
20C
330
1
100
AcDbSymbolTableRecord
100
AcDbBlockTableRecord
  2
SW_CENTERMARKSYMBOL_1
340
0
102
{BLKREFS
331
217
102
}
  0
BLOCK_RECORD
  5
218
330
1
100
AcDbSymbolTableRecord
100
AcDbBlockTableRecord
  2
SW_CENTERMARKSYMBOL_2
340
0
102
{BLKREFS
331
223
102
}
  0
BLOCK_RECORD
  5
224
330
1
100
AcDbSymbolTableRecord
100
AcDbBlockTableRecord
  2
SW_CENTERMARKSYMBOL_3
340
0
102
{BLKREFS
331
22F
102
}
  0
BLOCK_RECORD
  5
230
330
1
100
AcDbSymbolTableRecord
100
AcDbBlockTableRecord
  2
SW_CENTERMARKSYMBOL_4
340
0
102
{BLKREFS
331
23B
102
}
  0
BLOCK_RECORD
  5
23C
330
1
100
AcDbSymbolTableRecord
100
AcDbBlockTableRecord
  2
SW_CENTERMARKSYMBOL_5
340
0
102
{BLKREFS
331
247
102
}
  0
BLOCK_RECORD
  5
248
330
1
100
AcDbSymbolTableRecord
100
AcDbBlockTableRecord
  2
SW_CENTERMARKSYMBOL_6
340
0
102
{BLKREFS
331
253
102
}
  0
BLOCK_RECORD
  5
254
330
1
100
AcDbSymbolTableRecord
100
AcDbBlockTableRecord
  2
SW_CENTERMARKSYMBOL_7
340
0
102
{BLKREFS
331
25F
102
}
  0
BLOCK_RECORD
  5
260
330
1
100
AcDbSymbolTableRecord
100
AcDbBlockTableRecord
  2
SW_CENTERMARKSYMBOL_8
340
0
102
{BLKREFS
331
26B
102
}
  0
BLOCK_RECORD
  5
26C
330
1
100
AcDbSymbolTableRecord
100
AcDbBlockTableRecord
  2
SW_CENTERMARKSYMBOL_9
340
0
102
{BLKREFS
331
277
102
}
  0
BLOCK_RECORD
  5
278
330
1
100
AcDbSymbolTableRecord
100
AcDbBlockTableRecord
  2
SW_DATUMORIGIN_0
340
0
102
{BLKREFS
331
285
102
}
  0
BLOCK_RECORD
  5
2F6
330
1
100
AcDbSymbolTableRecord
100
AcDbBlockTableRecord
  2
_D_11
340
0
  0
BLOCK_RECORD
  5
300
330
1
100
AcDbSymbolTableRecord
100
AcDbBlockTableRecord
  2
_D_12
340
0
  0
BLOCK_RECORD
  5
367
330
1
100
AcDbSymbolTableRecord
100
AcDbBlockTableRecord
  2
_D_13
340
0
  0
BLOCK_RECORD
  5
373
330
1
100
AcDbSymbolTableRecord
100
AcDbBlockTableRecord
  2
_D_14
340
0
  0
BLOCK_RECORD
  5
37F
330
1
100
AcDbSymbolTableRecord
100
AcDbBlockTableRecord
  2
_D_15
340
0
  0
BLOCK_RECORD
  5
38C
330
1
100
AcDbSymbolTableRecord
100
AcDbBlockTableRecord
  2
_D_16
340
0
  0
BLOCK_RECORD
  5
396
330
1
100
AcDbSymbolTableRecord
100
AcDbBlockTableRecord
  2
_D_17
340
0
  0
BLOCK_RECORD
  5
3A0
330
1
100
AcDbSymbolTableRecord
100
AcDbBlockTableRecord
  2
_D_18
340
0
  0
BLOCK_RECORD
  5
3AC
330
1
100
AcDbSymbolTableRecord
100
AcDbBlockTableRecord
  2
_D_19
340
0
  0
BLOCK_RECORD
  5
3F6
330
1
100
AcDbSymbolTableRecord
100
AcDbBlockTableRecord
  2
_D_20
340
0
  0
BLOCK_RECORD
  5
402
330
1
100
AcDbSymbolTableRecord
100
AcDbBlockTableRecord
  2
_D_21
340
0
  0
BLOCK_RECORD
  5
40C
330
1
100
AcDbSymbolTableRecord
100
AcDbBlockTableRecord
  2
_D_22
340
0
  0
BLOCK_RECORD
  5
418
330
1
100
AcDbSymbolTableRecord
100
AcDbBlockTableRecord
  2
SW_CENTERMARKSYMBOL_10
340
0
102
{BLKREFS
331
0
102
}
  0
BLOCK_RECORD
  5
424
330
1
100
AcDbSymbolTableRecord
100
AcDbBlockTableRecord
  2
SW_CENTERMARKSYMBOL_11
340
0
102
{BLKREFS
331
0
102
}
  0
ENDTAB
  0
ENDSEC
  0
SECTION
  2
BLOCKS
  0
BLOCK
  5
20
330
1F
100
AcDbEntity
  8
0
100
AcDbBlockBegin
  2
*Model_Space
 70
     0
 10
0.0
 20
0.0
 30
0.0
  3
*Model_Space
  1

  0
ENDBLK
  5
21
330
1F
100
AcDbEntity
  8
0
100
AcDbBlockEnd
  0
BLOCK
  5
1C
330
1B
100
AcDbEntity
 67
     1
  8
0
100
AcDbBlockBegin
  2
*Paper_Space
 70
     0
 10
0.0
 20
0.0
 30
0.0
  3
*Paper_Space
  1

  0
ENDBLK
  5
1D
330
1B
100
AcDbEntity
 67
     1
  8
0
100
AcDbBlockEnd
  0
BLOCK
  5
24
330
23
100
AcDbEntity
  8
0
100
AcDbBlockBegin
  2
*Paper_Space0
 70
     0
 10
0.0
 20
0.0
 30
0.0
  3
*Paper_Space0
  1

  0
ENDBLK
  5
25
330
23
100
AcDbEntity
  8
0
100
AcDbBlockEnd
  0
BLOCK
  5
81
330
80
100
AcDbEntity
  8
0
100
AcDbBlockBegin
  2
SW_NOTE_11
 70
     0
 10
0.0
 20
0.0
 30
0.0
  3
SW_NOTE_11
  1

  0
MTEXT
  5
83
330
80
100
AcDbEntity
  8
0
  6
Continuous
 62
     0
370
     0
100
AcDbMText
 10
0.0
 20
6.7592773437
 30
0.0
 40
5.2916666667
 41
0.0
 71
     1
 72
     1
  1
Blatt
  7
SLDTEXTSTYLE0
 73
     1
 44
1.0
  0
MTEXT
  5
84
330
80
100
AcDbEntity
  8
0
  6
Continuous
 62
     0
370
     0
100
AcDbMText
 10
0.0
 20
-0.5184867214
 30
0.0
 40
9.2604166667
 41
0.0
 71
     1
 72
     1
  1
A4
  7
SLDTEXTSTYLE0
 73
     1
 44
1.0
  0
ENDBLK
  5
82
330
80
100
AcDbEntity
  8
0
100
AcDbBlockEnd
  0
BLOCK
  5
95
330
94
100
AcDbEntity
  8
0
100
AcDbBlockBegin
  2
SW_TABLEANNOTATION_0
 70
     0
 10
0.0
 20
0.0
 30
0.0
  3
SW_TABLEANNOTATION_0
  1

  0
LINE
  5
97
330
94
100
AcDbEntity
  8
YELLOW
 62
     0
100
AcDbLine
 10
0.0
 20
0.0
 30
0.0
 11
0.0
 21
-153.4214986393
 31
0.0
  0
LINE
  5
98
330
94
100
AcDbEntity
  8
YELLOW
 62
     0
100
AcDbLine
 10
0.0
 20
-153.4214986393
 30
0.0
 11
448.0228013412
 21
-153.4214986393
 31
0.0
  0
LINE
  5
99
330
94
100
AcDbEntity
  8
YELLOW
 62
     0
100
AcDbLine
 10
448.0228013412
 20
-153.4214986393
 30
0.0
 11
448.0228013412
 21
0.0
 31
0.0
  0
LINE
  5
9A
330
94
100
AcDbEntity
  8
YELLOW
 62
     0
100
AcDbLine
 10
448.0228013412
 20
0.0
 30
0.0
 11
0.0
 21
0.0
 31
0.0
  0
LINE
  5
9B
330
94
100
AcDbEntity
  8
YELLOW
 62
     0
100
AcDbLine
 10
61.9627692675
 20
0.0
 30
0.0
 11
61.9627692675
 21
-9.2127082054
 31
0.0
  0
LINE
  5
9C
330
94
100
AcDbEntity
  8
YELLOW
 62
     0
100
AcDbLine
 10
155.3688550756
 20
0.0
 30
0.0
 11
155.3688550756
 21
-9.2127082054
 31
0.0
  0
LINE
  5
9D
330
94
100
AcDbEntity
  8
YELLOW
 62
     0
100
AcDbLine
 10
253.5738870831
 20
0.0
 30
0.0
 11
253.5738870831
 21
-9.2127082054
 31
0.0
  0
LINE
  5
9E
330
94
100
AcDbEntity
  8
YELLOW
 62
     0
100
AcDbLine
 10
61.9627692675
 20
-9.2127082054
 30
0.0
 11
61.9627692675
 21
-153.4214986393
 31
0.0
  0
LINE
  5
9F
330
94
100
AcDbEntity
  8
YELLOW
 62
     0
100
AcDbLine
 10
155.3688550756
 20
-9.2127082054
 30
0.0
 11
155.3688550756
 21
-153.4214986393
 31
0.0
  0
LINE
  5
A0
330
94
100
AcDbEntity
  8
YELLOW
 62
     0
100
AcDbLine
 10
253.5738870831
 20
-9.2127082054
 30
0.0
 11
253.5738870831
 21
-153.4214986393
 31
0.0
  0
LINE
  5
A1
330
94
100
AcDbEntity
  8
YELLOW
 62
     0
100
AcDbLine
 10
0.0
 20
-20.431472195
 30
0.0
 11
253.5738870831
 21
-20.431472195
 31
0.0
  0
LINE
  5
A2
330
94
100
AcDbEntity
  8
YELLOW
 62
     0
100
AcDbLine
 10
0.0
 20
-29.6441804004
 30
0.0
 11
253.5738870831
 21
-29.6441804004
 31
0.0
  0
LINE
  5
A3
330
94
100
AcDbEntity
  8
YELLOW
 62
     0
100
AcDbLine
 10
0.0
 20
-38.8568886059
 30
0.0
 11
253.5738870831
 21
-38.8568886059
 31
0.0
  0
LINE
  5
A4
330
94
100
AcDbEntity
  8
YELLOW
 62
     0
100
AcDbLine
 10
0.0
 20
-48.0695968113
 30
0.0
 11
448.0228013412
 21
-48.0695968113
 31
0.0
  0
LINE
  5
A5
330
94
100
AcDbEntity
  8
YELLOW
 62
     0
100
AcDbLine
 10
0.0
 20
-57.2823050167
 30
0.0
 11
448.0228013412
 21
-57.2823050167
 31
0.0
  0
LINE
  5
A6
330
94
100
AcDbEntity
  8
YELLOW
 62
     0
100
AcDbLine
 10
0.0
 20
-68.5010690063
 30
0.0
 11
253.5738870831
 21
-68.5010690063
 31
0.0
  0
LINE
  5
A7
330
94
100
AcDbEntity
  8
YELLOW
 62
     0
100
AcDbLine
 10
0.0
 20
-77.7137772117
 30
0.0
 11
448.0228013412
 21
-77.7137772117
 31
0.0
  0
LINE
  5
A8
330
94
100
AcDbEntity
  8
YELLOW
 62
     0
100
AcDbLine
 10
0.0
 20
-86.9264854171
 30
0.0
 11
448.0228013412
 21
-86.9264854171
 31
0.0
  0
LINE
  5
A9
330
94
100
AcDbEntity
  8
YELLOW
 62
     0
100
AcDbLine
 10
0.0
 20
-98.1452494067
 30
0.0
 11
253.5738870831
 21
-98.1452494067
 31
0.0
  0
LINE
  5
AA
330
94
100
AcDbEntity
  8
YELLOW
 62
     0
100
AcDbLine
 10
0.0
 20
-107.3579576121
 30
0.0
 11
253.5738870831
 21
-107.3579576121
 31
0.0
  0
LINE
  5
AB
330
94
100
AcDbEntity
  8
YELLOW
 62
     0
100
AcDbLine
 10
0.0
 20
-116.5706658176
 30
0.0
 11
253.5738870831
 21
-116.5706658176
 31
0.0
  0
LINE
  5
AC
330
94
100
AcDbEntity
  8
YELLOW
 62
     0
100
AcDbLine
 10
0.0
 20
-125.783374023
 30
0.0
 11
448.0228013412
 21
-125.783374023
 31
0.0
  0
LINE
  5
AD
330
94
100
AcDbEntity
  8
YELLOW
 62
     0
100
AcDbLine
 10
0.0
 20
-134.9960822284
 30
0.0
 11
448.0228013412
 21
-134.9960822284
 31
0.0
  0
LINE
  5
AE
330
94
100
AcDbEntity
  8
YELLOW
 62
     0
100
AcDbLine
 10
0.0
 20
-144.2087904338
 30
0.0
 11
448.0228013412
 21
-144.2087904338
 31
0.0
  0
LINE
  5
AF
330
94
100
AcDbEntity
  8
YELLOW
 62
     0
100
AcDbLine
 10
0.0
 20
-9.2127082054
 30
0.0
 11
448.0228013412
 21
-9.2127082054
 31
0.0
  0
MTEXT
  5
B0
330
94
100
AcDbEntity
  8
YELLOW
 62
     0
100
AcDbMText
 10
20.1922640639
 20
-0.7653970422
 30
0.0
 40
7.9375
 41
0.0
 71
     1
 72
     1
  1
TAG
  7
SLDTEXTSTYLE0
 73
     1
 44
1.0
  0
MTEXT
  5
B1
330
94
100
AcDbEntity
  8
YELLOW
 62
     0
100
AcDbMText
 10
92.6364724222
 20
-0.7653970422
 30
0.0
 40
7.9375
 41
0.0
 71
     1
 72
     1
  1
X LOC
  7
SLDTEXTSTYLE0
 73
     1
 44
1.0
  0
MTEXT
  5
B2
330
94
100
AcDbEntity
  8
YELLOW
 62
     0
100
AcDbMText
 10
188.5302252495
 20
-0.7653970422
 30
0.0
 40
7.9375
 41
0.0
 71
     1
 72
     1
  1
Y LOC
  7
SLDTEXTSTYLE0
 73
     1
 44
1.0
  0
MTEXT
  5
B3
330
94
100
AcDbEntity
  8
YELLOW
 62
     0
100
AcDbMText
 10
341.5820249082
 20
-0.7653970422
 30
0.0
 40
7.9375
 41
0.0
 71
     1
 72
     1
  1
SIZE
  7
SLDTEXTSTYLE0
 73
     1
 44
1.0
  0
MTEXT
  5
B4
330
94
100
AcDbEntity
  8
YELLOW
 62
     0
100
AcDbMText
 10
24.1316165279
 20
-11.1488485317
 30
0.0
 40
7.9375
 41
0.0
 71
     1
 72
     1
  1
A1
  7
SLDTEXTSTYLE0
 73
     1
 44
1.0
  0
MTEXT
  5
B5
330
94
100
AcDbEntity
  8
YELLOW
 62
     0
100
AcDbMText
 10
98.4058586112
 20
-11.1488485317
 30
0.0
 40
7.9375
 41
0.0
 71
     1
 72
     1
  1
14.2
  7
SLDTEXTSTYLE0
 73
     1
 44
1.0
  0
MTEXT
  5
B6
330
94
100
AcDbEntity
  8
YELLOW
 62
     0
100
AcDbMText
 10
198.6064405074
 20
-11.1488485317
 30
0.0
 40
7.9375
 41
0.0
 71
     1
 72
     1
  1
98
  7
SLDTEXTSTYLE0
 73
     1
 44
1.0
  0
MTEXT
  5
B7
330
94
100
AcDbEntity
  8
YELLOW
 62
     0
100
AcDbMText
 10
334.547782755
 20
-24.9679108399
 30
0.0
 40
7.9375
 41
0.0
 71
     1
 72
     1
  1
%%c
  7
SLDTEXTSTYLE0
 73
     1
 44
1.0
  0
MTEXT
  5
B8
330
94
100
AcDbEntity
  8
YELLOW
 62
     0
100
AcDbMText
 10
346.5289985487
 20
-24.9679108399
 30
0.0
 40
7.9375
 41
0.0
 71
     1
 72
     1
  1
5.10
  7
SLDTEXTSTYLE0
 73
     1
 44
1.0
  0
MTEXT
  5
B9
330
94
100
AcDbEntity
  8
YELLOW
 62
     0
100
AcDbMText
 10
24.1316165279
 20
-21.1968692372
 30
0.0
 40
7.9375
 41
0.0
 71
     1
 72
     1
  1
A2
  7
SLDTEXTSTYLE0
 73
     1
 44
1.0
  0
MTEXT
  5
BA
330
94
100
AcDbEntity
  8
YELLOW
 62
     0
100
AcDbMText
 10
98.4058586112
 20
-21.1968692372
 30
0.0
 40
7.9375
 41
0.0
 71
     1
 72
     1
  1
14.2
  7
SLDTEXTSTYLE0
 73
     1
 44
1.0
  0
MTEXT
  5
BB
330
94
100
AcDbEntity
  8
YELLOW
 62
     0
100
AcDbMText
 10
195.6739752214
 20
-21.1968692372
 30
0.0
 40
7.9375
 41
0.0
 71
     1
 72
     1
  1
178
  7
SLDTEXTSTYLE0
 73
     1
 44
1.0
  0
MTEXT
  5
BC
330
94
100
AcDbEntity
  8
YELLOW
 62
     0
100
AcDbMText
 10
24.1316165279
 20
-30.4095774426
 30
0.0
 40
7.9375
 41
0.0
 71
     1
 72
     1
  1
A3
  7
SLDTEXTSTYLE0
 73
     1
 44
1.0
  0
MTEXT
  5
BD
330
94
100
AcDbEntity
  8
YELLOW
 62
     0
100
AcDbMText
 10
99.8684163136
 20
-30.4095774426
 30
0.0
 40
7.9375
 41
0.0
 71
     1
 72
     1
  1
941
  7
SLDTEXTSTYLE0
 73
     1
 44
1.0
  0
MTEXT
  5
BE
330
94
100
AcDbEntity
  8
YELLOW
 62
     0
100
AcDbMText
 10
198.6064405074
 20
-30.4095774426
 30
0.0
 40
7.9375
 41
0.0
 71
     1
 72
     1
  1
98
  7
SLDTEXTSTYLE0
 73
     1
 44
1.0
  0
MTEXT
  5
BF
330
94
100
AcDbEntity
  8
YELLOW
 62
     0
100
AcDbMText
 10
24.1316165279
 20
-39.622285648
 30
0.0
 40
7.9375
 41
0.0
 71
     1
 72
     1
  1
A4
  7
SLDTEXTSTYLE0
 73
     1
 44
1.0
  0
MTEXT
  5
C0
330
94
100
AcDbEntity
  8
YELLOW
 62
     0
100
AcDbMText
 10
99.8684163136
 20
-39.622285648
 30
0.0
 40
7.9375
 41
0.0
 71
     1
 72
     1
  1
941
  7
SLDTEXTSTYLE0
 73
     1
 44
1.0
  0
MTEXT
  5
C1
330
94
100
AcDbEntity
  8
YELLOW
 62
     0
100
AcDbMText
 10
195.6739752214
 20
-39.622285648
 30
0.0
 40
7.9375
 41
0.0
 71
     1
 72
     1
  1
178
  7
SLDTEXTSTYLE0
 73
     1
 44
1.0
  0
MTEXT
  5
C2
330
94
100
AcDbEntity
  8
YELLOW
 62
     0
100
AcDbMText
 10
25.0135603796
 20
-48.8349938535
 30
0.0
 40
7.9375
 41
0.0
 71
     1
 72
     1
  1
B1
  7
SLDTEXTSTYLE0
 73
     1
 44
1.0
  0
MTEXT
  5
C3
330
94
100
AcDbEntity
  8
YELLOW
 62
     0
100
AcDbMText
 10
98.4058586112
 20
-48.8349938535
 30
0.0
 40
7.9375
 41
0.0
 71
     1
 72
     1
  1
36.3
  7
SLDTEXTSTYLE0
 73
     1
 44
1.0
  0
MTEXT
  5
C4
330
94
100
AcDbEntity
  8
YELLOW
 62
     0
100
AcDbMText
 10
191.278951651
 20
-48.8349938535
 30
0.0
 40
7.9375
 41
0.0
 71
     1
 72
     1
  1
210.2
  7
SLDTEXTSTYLE0
 73
     1
 44
1.0
  0
MTEXT
  5
C5
330
94
100
AcDbEntity
  8
YELLOW
 62
     0
100
AcDbMText
 10
23.7494401603
 20
-59.218445343
 30
0.0
 40
7.9375
 41
0.0
 71
     1
 72
     1
  1
C1
  7
SLDTEXTSTYLE0
 73
     1
 44
1.0
  0
MTEXT
  5
C6
330
94
100
AcDbEntity
  8
YELLOW
 62
     0
100
AcDbMText
 10
98.4058586112
 20
-59.218445343
 30
0.0
 40
7.9375
 41
0.0
 71
     1
 72
     1
  1
97.6
  7
SLDTEXTSTYLE0
 73
     1
 44
1.0
  0
MTEXT
  5
C7
330
94
100
AcDbEntity
  8
YELLOW
 62
     0
100
AcDbMText
 10
197.143882805
 20
-59.218445343
 30
0.0
 40
7.9375
 41
0.0
 71
     1
 72
     1
  1
8.5
  7
SLDTEXTSTYLE0
 73
     1
 44
1.0
  0
MTEXT
  5
C8
330
94
100
AcDbEntity
  8
YELLOW
 62
     0
100
AcDbMText
 10
331.6153180511
 20
-63.8247994457
 30
0.0
 40
7.9375
 41
0.0
 71
     1
 72
     1
  1
%%c
  7
SLDTEXTSTYLE0
 73
     1
 44
1.0
  0
MTEXT
  5
C9
330
94
100
AcDbEntity
  8
YELLOW
 62
     0
100
AcDbMText
 10
343.5965338447
 20
-63.8247994457
 30
0.0
 40
7.9375
 41
0.0
 71
     1
 72
     1
  1
11.20
  7
SLDTEXTSTYLE0
 73
     1
 44
1.0
  0
MTEXT
  5
CA
330
94
100
AcDbEntity
  8
YELLOW
 62
     0
100
AcDbMText
 10
23.7494401603
 20
-69.2664660484
 30
0.0
 40
7.9375
 41
0.0
 71
     1
 72
     1
  1
C2
  7
SLDTEXTSTYLE0
 73
     1
 44
1.0
  0
MTEXT
  5
CB
330
94
100
AcDbEntity
  8
YELLOW
 62
     0
100
AcDbMText
 10
95.4733927432
 20
-69.2664660484
 30
0.0
 40
7.9375
 41
0.0
 71
     1
 72
     1
  1
857.6
  7
SLDTEXTSTYLE0
 73
     1
 44
1.0
  0
MTEXT
  5
CC
330
94
100
AcDbEntity
  8
YELLOW
 62
     0
100
AcDbMText
 10
197.143882805
 20
-69.2664660484
 30
0.0
 40
7.9375
 41
0.0
 71
     1
 72
     1
  1
8.5
  7
SLDTEXTSTYLE0
 73
     1
 44
1.0
  0
MTEXT
  5
CD
330
94
100
AcDbEntity
  8
YELLOW
 62
     0
100
AcDbMText
 10
24.1095674659
 20
-78.4791742539
 30
0.0
 40
7.9375
 41
0.0
 71
     1
 72
     1
  1
D1
  7
SLDTEXTSTYLE0
 73
     1
 44
1.0
  0
MTEXT
  5
CE
330
94
100
AcDbEntity
  8
YELLOW
 62
     0
100
AcDbMText
 10
95.4733927432
 20
-78.4791742539
 30
0.0
 40
7.9375
 41
0.0
 71
     1
 72
     1
  1
107.1
  7
SLDTEXTSTYLE0
 73
     1
 44
1.0
  0
MTEXT
  5
CF
330
94
100
AcDbEntity
  8
YELLOW
 62
     0
100
AcDbMText
 10
191.278951651
 20
-78.4791742539
 30
0.0
 40
7.9375
 41
0.0
 71
     1
 72
     1
  1
208.2
  7
SLDTEXTSTYLE0
 73
     1
 44
1.0
  0
MTEXT
  5
D0
330
94
100
AcDbEntity
  8
YELLOW
 62
     0
100
AcDbMText
 10
25.2119984447
 20
-88.8626257434
 30
0.0
 40
7.9375
 41
0.0
 71
     1
 72
     1
  1
E1
  7
SLDTEXTSTYLE0
 73
     1
 44
1.0
  0
MTEXT
  5
D1
330
94
100
AcDbEntity
  8
YELLOW
 62
     0
100
AcDbMText
 10
95.4733927432
 20
-88.8626257434
 30
0.0
 40
7.9375
 41
0.0
 71
     1
 72
     1
  1
137.6
  7
SLDTEXTSTYLE0
 73
     1
 44
1.0
  0
MTEXT
  5
D2
330
94
100
AcDbEntity
  8
YELLOW
 62
     0
100
AcDbMText
 10
197.143882805
 20
-88.8626257434
 30
0.0
 40
7.9375
 41
0.0
 71
     1
 72
     1
  1
8.5
  7
SLDTEXTSTYLE0
 73
     1
 44
1.0
  0
MTEXT
  5
D3
330
94
100
AcDbEntity
  8
YELLOW
 62
     0
100
AcDbMText
 10
334.547782755
 20
-102.6816880516
 30
0.0
 40
7.9375
 41
0.0
 71
     1
 72
     1
  1
%%c
  7
SLDTEXTSTYLE0
 73
     1
 44
1.0
  0
MTEXT
  5
D4
330
94
100
AcDbEntity
  8
YELLOW
 62
     0
100
AcDbMText
 10
346.5289985487
 20
-102.6816880516
 30
0.0
 40
7.9375
 41
0.0
 71
     1
 72
     1
  1
6.40
  7
SLDTEXTSTYLE0
 73
     1
 44
1.0
  0
MTEXT
  5
D5
330
94
100
AcDbEntity
  8
YELLOW
 62
     0
100
AcDbMText
 10
25.2119984447
 20
-98.9106464489
 30
0.0
 40
7.9375
 41
0.0
 71
     1
 72
     1
  1
E2
  7
SLDTEXTSTYLE0
 73
     1
 44
1.0
  0
MTEXT
  5
D6
330
94
100
AcDbEntity
  8
YELLOW
 62
     0
100
AcDbMText
 10
95.4733927432
 20
-98.9106464489
 30
0.0
 40
7.9375
 41
0.0
 71
     1
 72
     1
  1
327.6
  7
SLDTEXTSTYLE0
 73
     1
 44
1.0
  0
MTEXT
  5
D7
330
94
100
AcDbEntity
  8
YELLOW
 62
     0
100
AcDbMText
 10
197.143882805
 20
-98.9106464489
 30
0.0
 40
7.9375
 41
0.0
 71
     1
 72
     1
  1
8.5
  7
SLDTEXTSTYLE0
 73
     1
 44
1.0
  0
MTEXT
  5
D8
330
94
100
AcDbEntity
  8
YELLOW
 62
     0
100
AcDbMText
 10
25.2119984447
 20
-108.1233546543
 30
0.0
 40
7.9375
 41
0.0
 71
     1
 72
     1
  1
E3
  7
SLDTEXTSTYLE0
 73
     1
 44
1.0
  0
MTEXT
  5
D9
330
94
100
AcDbEntity
  8
YELLOW
 62
     0
100
AcDbMText
 10
95.4733927432
 20
-108.1233546543
 30
0.0
 40
7.9375
 41
0.0
 71
     1
 72
     1
  1
627.6
  7
SLDTEXTSTYLE0
 73
     1
 44
1.0
  0
MTEXT
  5
DA
330
94
100
AcDbEntity
  8
YELLOW
 62
     0
100
AcDbMText
 10
197.143882805
 20
-108.1233546543
 30
0.0
 40
7.9375
 41
0.0
 71
     1
 72
     1
  1
8.5
  7
SLDTEXTSTYLE0
 73
     1
 44
1.0
  0
MTEXT
  5
DB
330
94
100
AcDbEntity
  8
YELLOW
 62
     0
100
AcDbMText
 10
25.2119984447
 20
-117.3360628597
 30
0.0
 40
7.9375
 41
0.0
 71
     1
 72
     1
  1
E4
  7
SLDTEXTSTYLE0
 73
     1
 44
1.0
  0
MTEXT
  5
DC
330
94
100
AcDbEntity
  8
YELLOW
 62
     0
100
AcDbMText
 10
95.4733927432
 20
-117.3360628597
 30
0.0
 40
7.9375
 41
0.0
 71
     1
 72
     1
  1
817.6
  7
SLDTEXTSTYLE0
 73
     1
 44
1.0
  0
MTEXT
  5
DD
330
94
100
AcDbEntity
  8
YELLOW
 62
     0
100
AcDbMText
 10
197.143882805
 20
-117.3360628597
 30
0.0
 40
7.9375
 41
0.0
 71
     1
 72
     1
  1
8.5
  7
SLDTEXTSTYLE0
 73
     1
 44
1.0
  0
MTEXT
  5
DE
330
94
100
AcDbEntity
  8
YELLOW
 62
     0
100
AcDbMText
 10
25.4839306666
 20
-126.5487710652
 30
0.0
 40
7.9375
 41
0.0
 71
     1
 72
     1
  1
F1
  7
SLDTEXTSTYLE0
 73
     1
 44
1.0
  0
MTEXT
  5
DF
330
94
100
AcDbEntity
  8
YELLOW
 62
     0
100
AcDbMText
 10
95.4733927432
 20
-126.5487710652
 30
0.0
 40
7.9375
 41
0.0
 71
     1
 72
     1
  1
477.6
  7
SLDTEXTSTYLE0
 73
     1
 44
1.0
  0
MTEXT
  5
E0
330
94
100
AcDbEntity
  8
YELLOW
 62
     0
100
AcDbMText
 10
191.278951651
 20
-126.5487710652
 30
0.0
 40
7.9375
 41
0.0
 71
     1
 72
     1
  1
208.2
  7
SLDTEXTSTYLE0
 73
     1
 44
1.0
  0
MTEXT
  5
E1
330
94
100
AcDbEntity
  8
YELLOW
 62
     0
100
AcDbMText
 10
23.4334098144
 20
-135.7614792706
 30
0.0
 40
7.9375
 41
0.0
 71
     1
 72
     1
  1
G1
  7
SLDTEXTSTYLE0
 73
     1
 44
1.0
  0
MTEXT
  5
E2
330
94
100
AcDbEntity
  8
YELLOW
 62
     0
100
AcDbMText
 10
95.4733927432
 20
-135.7614792706
 30
0.0
 40
7.9375
 41
0.0
 71
     1
 72
     1
  1
848.1
  7
SLDTEXTSTYLE0
 73
     1
 44
1.0
  0
MTEXT
  5
E3
330
94
100
AcDbEntity
  8
YELLOW
 62
     0
100
AcDbMText
 10
191.278951651
 20
-135.7614792706
 30
0.0
 40
7.9375
 41
0.0
 71
     1
 72
     1
  1
208.2
  7
SLDTEXTSTYLE0
 73
     1
 44
1.0
  0
MTEXT
  5
E4
330
94
100
AcDbEntity
  8
YELLOW
 62
     0
100
AcDbMText
 10
24.432947111
 20
-144.974187476
 30
0.0
 40
7.9375
 41
0.0
 71
     1
 72
     1
  1
H1
  7
SLDTEXTSTYLE0
 73
     1
 44
1.0
  0
MTEXT
  5
E5
330
94
100
AcDbEntity
  8
YELLOW
 62
     0
100
AcDbMText
 10
95.4733927432
 20
-144.974187476
 30
0.0
 40
7.9375
 41
0.0
 71
     1
 72
     1
  1
920.8
  7
SLDTEXTSTYLE0
 73
     1
 44
1.0
  0
MTEXT
  5
E6
330
94
100
AcDbEntity
  8
YELLOW
 62
     0
100
AcDbMText
 10
191.278951651
 20
-144.974187476
 30
0.0
 40
7.9375
 41
0.0
 71
     1
 72
     1
  1
210.2
  7
SLDTEXTSTYLE0
 73
     1
 44
1.0
  0
ENDBLK
  5
96
330
94
100
AcDbEntity
  8
0
100
AcDbBlockEnd
  0
BLOCK
  5
15D
330
15C
100
AcDbEntity
  8
0
100
AcDbBlockBegin
  2
_D
 70
     0
 10
0.0
 20
0.0
 30
0.0
  3
_D
  1

  0
SOLID
  5
15F
330
15C
100
AcDbEntity
  8
BLUE
100
AcDbTrace
 10
986.8243003344
 20
724.6285635667
 30
0.0
 11
988.0454541806
 21
732.5660635667
 31
0.0
 12
985.6031464883
 22
732.5660635667
 32
0.0
 13
985.6031464883
 23
732.5660635667
 33
0.0
  0
SOLID
  5
160
330
15C
100
AcDbEntity
  8
BLUE
100
AcDbTrace
 10
986.8243003344
 20
706.5447141012
 30
0.0
 11
985.6031464883
 21
698.6072141012
 31
0.0
 12
988.0454541806
 22
698.6072141012
 32
0.0
 13
988.0454541806
 23
698.6072141012
 33
0.0
  0
LINE
  5
161
330
15C
100
AcDbEntity
  8
BLUE
100
AcDbLine
 10
965.212846957
 20
724.6285635667
 30
0.0
 11
991.8243003344
 21
724.6285635667
 31
0.0
  0
LINE
  5
162
330
15C
100
AcDbEntity
  8
BLUE
100
AcDbLine
 10
965.212846957
 20
706.5447141012
 30
0.0
 11
991.8243003344
 21
706.5447141012
 31
0.0
  0
LINE
  5
163
330
15C
100
AcDbEntity
  8
BLUE
100
AcDbLine
 10
986.8243003344
 20
724.6285635667
 30
0.0
 11
986.8243003344
 21
739.8929866436
 31
0.0
  0
LINE
  5
164
330
15C
100
AcDbEntity
  8
BLUE
100
AcDbLine
 10
986.8243003344
 20
724.6285635667
 30
0.0
 11
986.8243003344
 21
706.5447141012
 31
0.0
  0
LINE
  5
165
330
15C
100
AcDbEntity
  8
BLUE
100
AcDbLine
 10
986.8243003344
 20
706.5447141012
 30
0.0
 11
986.8243003344
 21
655.5138047115
 31
0.0
  0
MTEXT
  5
166
330
15C
100
AcDbEntity
  8
BLUE
100
AcDbMText
 10
976.6853854829
 20
663.4513047115
 30
0.0
 40
7.9375
 41
0.0
 71
     1
 72
     1
  1
18,1
  7
SLDTEXTSTYLE0
 11
-7.044195017643634E-15
 21
1.0
 31
0.0
 73
     1
 44
1.0
  0
ENDBLK
  5
15E
330
15C
100
AcDbEntity
  8
0
100
AcDbBlockEnd
  0
BLOCK
  5
16A
330
169
100
AcDbEntity
  8
0
100
AcDbBlockBegin
  2
_D_1
 70
     0
 10
0.0
 20
0.0
 30
0.0
  3
_D_1
  1

  0
SOLID
  5
16C
330
169
100
AcDbEntity
  8
BLUE
100
AcDbTrace
 10
1021.6747087498
 20
737.7962624977
 30
0.0
 11
1022.8958625959
 21
745.7337624977
 31
0.0
 12
1020.4535549036
 22
745.7337624977
 32
0.0
 13
1020.4535549036
 23
745.7337624977
 33
0.0
  0
SOLID
  5
16D
330
169
100
AcDbEntity
  8
BLUE
100
AcDbTrace
 10
1021.6747087498
 20
724.6285635667
 30
0.0
 11
1020.4535549036
 21
716.6910635667
 31
0.0
 12
1022.8958625959
 22
716.6910635667
 32
0.0
 13
1022.8958625959
 23
716.6910635667
 33
0.0
  0
LINE
  5
16E
330
169
100
AcDbEntity
  8
BLUE
100
AcDbLine
 10
965.212846957
 20
737.7962624977
 30
0.0
 11
1026.6747087498
 21
737.7962624977
 31
0.0
  0
LINE
  5
16F
330
169
100
AcDbEntity
  8
BLUE
100
AcDbLine
 10
965.212846957
 20
724.6285635667
 30
0.0
 11
1026.6747087498
 21
724.6285635667
 31
0.0
  0
LINE
  5
170
330
169
100
AcDbEntity
  8
BLUE
100
AcDbLine
 10
1021.6747087498
 20
737.7962624977
 30
0.0
 11
1021.6747087498
 21
753.0606855746
 31
0.0
  0
LINE
  5
171
330
169
100
AcDbEntity
  8
BLUE
100
AcDbLine
 10
1021.6747087498
 20
737.7962624977
 30
0.0
 11
1021.6747087498
 21
724.6285635667
 31
0.0
  0
LINE
  5
172
330
169
100
AcDbEntity
  8
BLUE
100
AcDbLine
 10
1021.6747087498
 20
724.6285635667
 30
0.0
 11
1021.6747087498
 21
655.5138047115
 31
0.0
  0
MTEXT
  5
173
330
169
100
AcDbEntity
  8
BLUE
100
AcDbMText
 10
1011.5357938983
 20
663.4513047115
 30
0.0
 40
7.9375
 41
0.0
 71
     1
 72
     1
  1
13,2
  7
SLDTEXTSTYLE0
 11
-7.044195017643634E-15
 21
1.0
 31
0.0
 73
     1
 44
1.0
  0
ENDBLK
  5
16B
330
169
100
AcDbEntity
  8
0
100
AcDbBlockEnd
  0
BLOCK
  5
176
330
175
100
AcDbEntity
  8
0
100
AcDbBlockBegin
  2
_D_2
 70
     0
 10
0.0
 20
0.0
 30
0.0
  3
_D_2
  1

  0
SOLID
  5
178
330
175
100
AcDbEntity
  8
BLUE
100
AcDbTrace
 10
1086.6517982095
 20
764.4639614286
 30
0.0
 11
1085.4306443634
 21
756.5264614286
 31
0.0
 12
1087.8729520557
 22
756.5264614286
 32
0.0
 13
1087.8729520557
 23
756.5264614286
 33
0.0
  0
SOLID
  5
179
330
175
100
AcDbEntity
  8
BLUE
100
AcDbTrace
 10
1086.6517982095
 20
737.7962624977
 30
0.0
 11
1087.8729520557
 21
745.7337624977
 31
0.0
 12
1085.4306443634
 22
745.7337624977
 32
0.0
 13
1085.4306443634
 23
745.7337624977
 33
0.0
  0
LINE
  5
17A
330
175
100
AcDbEntity
  8
BLUE
100
AcDbLine
 10
980.7966964225
 20
764.4639614286
 30
0.0
 11
1091.6517982095
 21
764.4639614286
 31
0.0
  0
LINE
  5
17B
330
175
100
AcDbEntity
  8
BLUE
100
AcDbLine
 10
965.212846957
 20
737.7962624977
 30
0.0
 11
1091.6517982095
 21
737.7962624977
 31
0.0
  0
LINE
  5
17C
330
175
100
AcDbEntity
  8
BLUE
100
AcDbLine
 10
1086.6517982095
 20
764.4639614286
 30
0.0
 11
1086.6517982095
 21
737.7962624977
 31
0.0
  0
LINE
  5
17D
330
175
100
AcDbEntity
  8
BLUE
100
AcDbLine
 10
1086.6517982095
 20
737.7962624977
 30
0.0
 11
1086.6517982095
 21
686.2150683875
 31
0.0
  0
MTEXT
  5
17E
330
175
100
AcDbEntity
  8
BLUE
100
AcDbMText
 10
1076.512883358
 20
694.1525683875
 30
0.0
 40
7.9375
 41
0.0
 71
     1
 72
     1
  1
26,7
  7
SLDTEXTSTYLE0
 11
-7.044195017643634E-15
 21
1.0
 31
0.0
 73
     1
 44
1.0
  0
ENDBLK
  5
177
330
175
100
AcDbEntity
  8
0
100
AcDbBlockEnd
  0
BLOCK
  5
181
330
180
100
AcDbEntity
  8
0
100
AcDbBlockBegin
  2
_D_3
 70
     0
 10
0.0
 20
0.0
 30
0.0
  3
_D_3
  1

  0
SOLID
  5
183
330
180
100
AcDbEntity
  8
BLUE
100
AcDbTrace
 10
1038.567948744
 20
822.3173258033
 30
0.0
 11
1030.630448744
 21
823.5384796494
 31
0.0
 12
1030.630448744
 22
821.0961719571
 32
0.0
 13
1030.630448744
 23
821.0961719571
 33
0.0
  0
SOLID
  5
184
330
180
100
AcDbEntity
  8
BLUE
100
AcDbTrace
 10
1046.6517982095
 20
822.3173258033
 30
0.0
 11
1054.5892982095
 21
821.0961719571
 31
0.0
 12
1054.5892982095
 22
823.5384796494
 32
0.0
 13
1054.5892982095
 23
823.5384796494
 33
0.0
  0
LINE
  5
185
330
180
100
AcDbEntity
  8
BLUE
100
AcDbLine
 10
1038.567948744
 20
822.3173258033
 30
0.0
 11
1023.3035256671
 21
822.3173258033
 31
0.0
  0
LINE
  5
186
330
180
100
AcDbEntity
  8
BLUE
100
AcDbLine
 10
1038.567948744
 20
822.3173258033
 30
0.0
 11
1046.6517982095
 21
822.3173258033
 31
0.0
  0
LINE
  5
187
330
180
100
AcDbEntity
  8
BLUE
100
AcDbLine
 10
1046.6517982095
 20
822.3173258033
 30
0.0
 11
1115.0455693418
 21
822.3173258033
 31
0.0
  0
MTEXT
  5
188
330
180
100
AcDbEntity
  8
BLUE
100
AcDbMText
 10
1093.5021179268
 20
832.4562406548
 30
0.0
 40
7.9375
 41
0.0
 71
     1
 72
     1
  1
8,1
  7
SLDTEXTSTYLE0
 73
     1
 44
1.0
  0
ENDBLK
  5
182
330
180
100
AcDbEntity
  8
0
100
AcDbBlockEnd
  0
BLOCK
  5
18B
330
18A
100
AcDbEntity
  8
0
100
AcDbBlockBegin
  2
_D_4
 70
     0
 10
0.0
 20
0.0
 30
0.0
  3
_D_4
  1

  0
SOLID
  5
18D
330
18A
100
AcDbEntity
  8
BLUE
100
AcDbTrace
 10
1023.900249813
 20
862.2932446063
 30
0.0
 11
1015.962749813
 21
863.5143984524
 31
0.0
 12
1015.962749813
 22
861.0720907601
 32
0.0
 13
1015.962749813
 23
861.0720907601
 33
0.0
  0
SOLID
  5
18E
330
18A
100
AcDbEntity
  8
BLUE
100
AcDbTrace
 10
1038.567948744
 20
862.2932446063
 30
0.0
 11
1046.505448744
 21
861.0720907601
 31
0.0
 12
1046.505448744
 22
863.5143984524
 32
0.0
 13
1046.505448744
 23
863.5143984524
 33
0.0
  0
LINE
  5
18F
330
18A
100
AcDbEntity
  8
BLUE
100
AcDbLine
 10
1023.900249813
 20
862.2932446063
 30
0.0
 11
1008.6358267361
 21
862.2932446063
 31
0.0
  0
LINE
  5
190
330
18A
100
AcDbEntity
  8
BLUE
100
AcDbLine
 10
1023.900249813
 20
862.2932446063
 30
0.0
 11
1038.567948744
 21
862.2932446063
 31
0.0
  0
LINE
  5
191
330
18A
100
AcDbEntity
  8
BLUE
100
AcDbLine
 10
1038.567948744
 20
862.2932446063
 30
0.0
 11
1118.4470571955
 21
862.2932446063
 31
0.0
  0
MTEXT
  5
192
330
18A
100
AcDbEntity
  8
BLUE
100
AcDbMText
 10
1090.100630073
 20
872.4321594578
 30
0.0
 40
7.9375
 41
0.0
 71
     1
 72
     1
  1
14,7
  7
SLDTEXTSTYLE0
 73
     1
 44
1.0
  0
ENDBLK
  5
18C
330
18A
100
AcDbEntity
  8
0
100
AcDbBlockEnd
  0
BLOCK
  5
195
330
194
100
AcDbEntity
  8
0
100
AcDbBlockBegin
  2
_D_5
 70
     0
 10
0.0
 20
0.0
 30
0.0
  3
_D_5
  1

  0
SOLID
  5
197
330
194
100
AcDbEntity
  8
BLUE
100
AcDbTrace
 10
975.9414003476
 20
884.430990818
 30
0.0
 11
983.8789003476
 21
883.2098369719
 31
0.0
 12
983.8789003476
 22
885.6521446642
 32
0.0
 13
983.8789003476
 23
885.6521446642
 33
0.0
  0
SOLID
  5
198
330
194
100
AcDbEntity
  8
BLUE
100
AcDbTrace
 10
1023.900249813
 20
884.430990818
 30
0.0
 11
1015.962749813
 21
885.6521446642
 31
0.0
 12
1015.962749813
 22
883.2098369719
 32
0.0
 13
1015.962749813
 23
883.2098369719
 33
0.0
  0
LINE
  5
199
330
194
100
AcDbEntity
  8
BLUE
100
AcDbLine
 10
975.9414003476
 20
884.430990818
 30
0.0
 11
1023.900249813
 21
884.430990818
 31
0.0
  0
LINE
  5
19A
330
194
100
AcDbEntity
  8
BLUE
100
AcDbLine
 10
1023.900249813
 20
884.430990818
 30
0.0
 11
1112.5497051638
 21
884.430990818
 31
0.0
  0
MTEXT
  5
19B
330
194
100
AcDbEntity
  8
BLUE
100
AcDbMText
 10
1093.7274440318
 20
894.5699056695
 30
0.0
 40
7.9375
 41
0.0
 71
     1
 72
     1
  1
48
  7
SLDTEXTSTYLE0
 73
     1
 44
1.0
  0
ENDBLK
  5
196
330
194
100
AcDbEntity
  8
0
100
AcDbBlockEnd
  0
BLOCK
  5
19E
330
19D
100
AcDbEntity
  8
0
100
AcDbBlockBegin
  2
_D_6
 70
     0
 10
0.0
 20
0.0
 30
0.0
  3
_D_6
  1

  0
SOLID
  5
1A0
330
19D
100
AcDbEntity
  8
BLUE
100
AcDbTrace
 10
1120.7686377327
 20
907.6316603596
 30
0.0
 11
1119.5474838866
 21
899.6941603596
 31
0.0
 12
1121.9897915789
 22
899.6941603596
 32
0.0
 13
1121.9897915789
 23
899.6941603596
 33
0.0
  0
SOLID
  5
1A1
330
19D
100
AcDbEntity
  8
BLUE
100
AcDbTrace
 10
1120.7686377327
 20
925.7993592906
 30
0.0
 11
1121.9897915789
 21
933.7368592906
 31
0.0
 12
1119.5474838866
 22
933.7368592906
 32
0.0
 13
1119.5474838866
 23
933.7368592906
 33
0.0
  0
LINE
  5
1A2
330
19D
100
AcDbEntity
  8
BLUE
100
AcDbLine
 10
1028.462846957
 20
907.6316603596
 30
0.0
 11
1125.7686377327
 21
907.6316603596
 31
0.0
  0
LINE
  5
1A3
330
19D
100
AcDbEntity
  8
BLUE
100
AcDbLine
 10
1028.462846957
 20
925.7993592906
 30
0.0
 11
1125.7686377327
 21
925.7993592906
 31
0.0
  0
LINE
  5
1A4
330
19D
100
AcDbEntity
  8
BLUE
100
AcDbLine
 10
1120.7686377327
 20
907.6316603596
 30
0.0
 11
1120.7686377327
 21
892.3672372827
 31
0.0
  0
LINE
  5
1A5
330
19D
100
AcDbEntity
  8
BLUE
100
AcDbLine
 10
1120.7686377327
 20
907.6316603596
 30
0.0
 11
1120.7686377327
 21
925.7993592906
 31
0.0
  0
LINE
  5
1A6
330
19D
100
AcDbEntity
  8
BLUE
100
AcDbLine
 10
1120.7686377327
 20
925.7993592906
 30
0.0
 11
1120.7686377327
 21
973.3063655368
 31
0.0
  0
MTEXT
  5
1A7
330
19D
100
AcDbEntity
  8
BLUE
100
AcDbMText
 10
1110.6297228813
 20
944.9599384143
 30
0.0
 40
7.9375
 41
0.0
 71
     1
 72
     1
  1
18,2
  7
SLDTEXTSTYLE0
 11
6.123233995736766E-17
 21
1.0
 31
0.0
 73
     1
 44
1.0
  0
ENDBLK
  5
19F
330
19D
100
AcDbEntity
  8
0
100
AcDbBlockEnd
  0
BLOCK
  5
1AA
330
1A9
100
AcDbEntity
  8
0
100
AcDbBlockBegin
  2
_D_7
 70
     0
 10
0.0
 20
0.0
 30
0.0
  3
_D_7
  1

  0
SOLID
  5
1AC
330
1A9
100
AcDbEntity
  8
BLUE
100
AcDbTrace
 10
1086.6517982095
 20
933.8832087561
 30
0.0
 11
1087.8729520557
 21
941.8207087561
 31
0.0
 12
1085.4306443634
 22
941.8207087561
 32
0.0
 13
1085.4306443634
 23
941.8207087561
 33
0.0
  0
SOLID
  5
1AD
330
1A9
100
AcDbEntity
  8
BLUE
100
AcDbTrace
 10
1086.6517982095
 20
925.7993592906
 30
0.0
 11
1085.4306443634
 21
917.8618592906
 31
0.0
 12
1087.8729520557
 22
917.8618592906
 32
0.0
 13
1087.8729520557
 23
917.8618592906
 33
0.0
  0
LINE
  5
1AE
330
1A9
100
AcDbEntity
  8
BLUE
100
AcDbLine
 10
1028.462846957
 20
933.8832087561
 30
0.0
 11
1091.6517982095
 21
933.8832087561
 31
0.0
  0
LINE
  5
1AF
330
1A9
100
AcDbEntity
  8
BLUE
100
AcDbLine
 10
1028.462846957
 20
925.7993592906
 30
0.0
 11
1091.6517982095
 21
925.7993592906
 31
0.0
  0
LINE
  5
1B0
330
1A9
100
AcDbEntity
  8
BLUE
100
AcDbLine
 10
1086.6517982095
 20
933.8832087561
 30
0.0
 11
1086.6517982095
 21
973.5122976658
 31
0.0
  0
LINE
  5
1B1
330
1A9
100
AcDbEntity
  8
BLUE
100
AcDbLine
 10
1086.6517982095
 20
933.8832087561
 30
0.0
 11
1086.6517982095
 21
925.7993592906
 31
0.0
  0
LINE
  5
1B2
330
1A9
100
AcDbEntity
  8
BLUE
100
AcDbLine
 10
1086.6517982095
 20
925.7993592906
 30
0.0
 11
1086.6517982095
 21
910.5349362137
 31
0.0
  0
MTEXT
  5
1B3
330
1A9
100
AcDbEntity
  8
BLUE
100
AcDbMText
 10
1076.512883358
 20
951.9688462508
 30
0.0
 40
7.9375
 41
0.0
 71
     1
 72
     1
  1
8,1
  7
SLDTEXTSTYLE0
 11
-7.044195017643634E-15
 21
1.0
 31
0.0
 73
     1
 44
1.0
  0
ENDBLK
  5
1AB
330
1A9
100
AcDbEntity
  8
0
100
AcDbBlockEnd
  0
BLOCK
  5
1B6
330
1B5
100
AcDbEntity
  8
0
100
AcDbBlockBegin
  2
_D_8
 70
     0
 10
0.0
 20
0.0
 30
0.0
  3
_D_8
  1

  0
SOLID
  5
1B8
330
1B5
100
AcDbEntity
  8
BLUE
100
AcDbTrace
 10
102.5739610326
 20
749.7962624977
 30
0.0
 11
103.7951148788
 21
757.7337624977
 31
0.0
 12
101.3528071864
 22
757.7337624977
 32
0.0
 13
101.3528071864
 23
757.7337624977
 33
0.0
  0
SOLID
  5
1B9
330
1B5
100
AcDbEntity
  8
BLUE
100
AcDbTrace
 10
102.5739610326
 20
735.7124130322
 30
0.0
 11
101.3528071864
 21
727.7749130322
 31
0.0
 12
103.7951148788
 22
727.7749130322
 32
0.0
 13
103.7951148788
 23
727.7749130322
 33
0.0
  0
LINE
  5
1BA
330
1B5
100
AcDbEntity
  8
BLUE
100
AcDbLine
 10
109.6699537381
 20
749.7962624977
 30
0.0
 11
97.5739610326
 21
749.7962624977
 31
0.0
  0
LINE
  5
1BB
330
1B5
100
AcDbEntity
  8
BLUE
100
AcDbLine
 10
109.6699537381
 20
735.7124130322
 30
0.0
 11
97.5739610326
 21
735.7124130322
 31
0.0
  0
LINE
  5
1BC
330
1B5
100
AcDbEntity
  8
BLUE
100
AcDbLine
 10
102.5739610326
 20
749.7962624977
 30
0.0
 11
102.5739610326
 21
765.0606855746
 31
0.0
  0
LINE
  5
1BD
330
1B5
100
AcDbEntity
  8
BLUE
100
AcDbLine
 10
102.5739610326
 20
749.7962624977
 30
0.0
 11
102.5739610326
 21
735.7124130322
 31
0.0
  0
LINE
  5
1BE
330
1B5
100
AcDbEntity
  8
BLUE
100
AcDbLine
 10
102.5739610326
 20
735.7124130322
 30
0.0
 11
102.5739610326
 21
695.779989849
 31
0.0
  0
MTEXT
  5
1BF
330
1B5
100
AcDbEntity
  8
BLUE
100
AcDbMText
 10
92.4350461811
 20
703.717489849
 30
0.0
 40
7.9375
 41
0.0
 71
     1
 72
     1
  1
14,1
  7
SLDTEXTSTYLE0
 11
-7.044195017643634E-15
 21
1.0
 31
0.0
 73
     1
 44
1.0
  0
ENDBLK
  5
1B7
330
1B5
100
AcDbEntity
  8
0
100
AcDbBlockEnd
  0
BLOCK
  5
1C2
330
1C1
100
AcDbEntity
  8
0
100
AcDbBlockBegin
  2
_D_9
 70
     0
 10
0.0
 20
0.0
 30
0.0
  3
_D_9
  1

  0
SOLID
  5
1C4
330
1C1
100
AcDbEntity
  8
YELLOW
100
AcDbTrace
 10
91.4810024856
 20
958.8832087561
 30
0.0
 11
99.4185024856
 21
957.6620549099
 31
0.0
 12
99.4185024856
 22
960.1043626022
 32
0.0
 13
99.4185024856
 23
960.1043626022
 33
0.0
  0
SOLID
  5
1C5
330
1C1
100
AcDbEntity
  8
YELLOW
100
AcDbTrace
 10
1046.6517982095
 20
958.8832087561
 30
0.0
 11
1038.7142982095
 21
960.1043626022
 31
0.0
 12
1038.7142982095
 22
957.6620549099
 32
0.0
 13
1038.7142982095
 23
957.6620549099
 33
0.0
  0
LINE
  5
1C6
330
1C1
100
AcDbEntity
  8
YELLOW
100
AcDbLine
 10
91.4810024856
 20
897.1942575035
 30
0.0
 11
91.4810024856
 21
963.8832087561
 31
0.0
  0
LINE
  5
1C7
330
1C1
100
AcDbEntity
  8
YELLOW
100
AcDbLine
 10
1046.6517982095
 20
897.1942575035
 30
0.0
 11
1046.6517982095
 21
963.8832087561
 31
0.0
  0
LINE
  5
1C8
330
1C1
100
AcDbEntity
  8
YELLOW
100
AcDbLine
 10
91.4810024856
 20
958.8832087561
 30
0.0
 11
1046.6517982095
 21
958.8832087561
 31
0.0
  0
MTEXT
  5
1C9
330
1C1
100
AcDbEntity
  8
YELLOW
100
AcDbMText
 10
556.1407465033
 20
969.0221236075
 30
0.0
 40
7.9375
 41
0.0
 71
     1
 72
     1
  1
955,2
  7
SLDTEXTSTYLE0
 73
     1
 44
1.0
  0
ENDBLK
  5
1C3
330
1C1
100
AcDbEntity
  8
0
100
AcDbBlockEnd
  0
BLOCK
  5
1CC
330
1CB
100
AcDbEntity
  8
0
100
AcDbBlockBegin
  2
_D_10
 70
     0
 10
0.0
 20
0.0
 30
0.0
  3
_D_10
  1

  0
SOLID
  5
1CE
330
1CB
100
AcDbEntity
  8
YELLOW
100
AcDbTrace
 10
51.4810024856
 20
933.8832087561
 30
0.0
 11
50.2598486394
 21
925.9457087561
 31
0.0
 12
52.7021563318
 22
925.9457087561
 32
0.0
 13
52.7021563318
 23
925.9457087561
 33
0.0
  0
SOLID
  5
1CF
330
1CB
100
AcDbEntity
  8
YELLOW
100
AcDbTrace
 10
51.4810024856
 20
706.5447141012
 30
0.0
 11
52.7021563318
 21
714.4822141012
 31
0.0
 12
50.2598486394
 22
714.4822141012
 32
0.0
 13
50.2598486394
 23
714.4822141012
 33
0.0
  0
LINE
  5
1D0
330
1CB
100
AcDbEntity
  8
YELLOW
100
AcDbLine
 10
176.7735071288
 20
933.8832087561
 30
0.0
 11
46.4810024856
 21
933.8832087561
 31
0.0
  0
LINE
  5
1D1
330
1CB
100
AcDbEntity
  8
YELLOW
100
AcDbLine
 10
172.9199537381
 20
706.5447141012
 30
0.0
 11
46.4810024856
 21
706.5447141012
 31
0.0
  0
LINE
  5
1D2
330
1CB
100
AcDbEntity
  8
YELLOW
100
AcDbLine
 10
51.4810024856
 20
933.8832087561
 30
0.0
 11
51.4810024856
 21
706.5447141012
 31
0.0
  0
MTEXT
  5
1D3
330
1CB
100
AcDbEntity
  8
YELLOW
100
AcDbMText
 10
41.3420876341
 20
807.2883075844
 30
0.0
 40
7.9375
 41
0.0
 71
     1
 72
     1
  1
227,3
  7
SLDTEXTSTYLE0
 11
-7.044195017643634E-15
 21
1.0
 31
0.0
 73
     1
 44
1.0
  0
ENDBLK
  5
1CD
330
1CB
100
AcDbEntity
  8
0
100
AcDbBlockEnd
  0
BLOCK
  5
201
330
200
100
AcDbEntity
  8
0
100
AcDbBlockBegin
  2
SW_CENTERMARKSYMBOL_0
 70
     0
 10
0.0
 20
0.0
 30
0.0
  3
SW_CENTERMARKSYMBOL_0
  1

  0
LINE
  5
203
330
200
100
AcDbEntity
  8
0
  6
SLD-Solid
 62
     0
370
     0
100
AcDbLine
 10
0.0
 20
0.0
 30
0.0
 11
0.0
 21
2.5
 31
0.0
  0
LINE
  5
204
330
200
100
AcDbEntity
  8
0
  6
SLD-Solid
 62
     0
370
     0
100
AcDbLine
 10
0.0
 20
0.0
 30
0.0
 11
-2.5
 21
0.0
 31
0.0
  0
LINE
  5
205
330
200
100
AcDbEntity
  8
0
  6
SLD-Solid
 62
     0
370
     0
100
AcDbLine
 10
0.0
 20
0.0
 30
0.0
 11
0.0
 21
-2.5
 31
0.0
  0
LINE
  5
206
330
200
100
AcDbEntity
  8
0
  6
SLD-Solid
 62
     0
370
     0
100
AcDbLine
 10
0.0
 20
0.0
 30
0.0
 11
2.5
 21
0.0
 31
0.0
  0
LINE
  5
207
330
200
100
AcDbEntity
  8
0
  6
SLD-Solid
 62
     0
370
     0
100
AcDbLine
 10
0.0
 20
5.0
 30
0.0
 11
0.0
 21
5.7
 31
0.0
  0
LINE
  5
208
330
200
100
AcDbEntity
  8
0
  6
SLD-Solid
 62
     0
370
     0
100
AcDbLine
 10
-5.0
 20
0.0
 30
0.0
 11
-5.7
 21
0.0
 31
0.0
  0
LINE
  5
209
330
200
100
AcDbEntity
  8
0
  6
SLD-Solid
 62
     0
370
     0
100
AcDbLine
 10
0.0
 20
-5.0
 30
0.0
 11
0.0
 21
-5.7
 31
0.0
  0
LINE
  5
20A
330
200
100
AcDbEntity
  8
0
  6
SLD-Solid
 62
     0
370
     0
100
AcDbLine
 10
5.0
 20
0.0
 30
0.0
 11
5.7
 21
0.0
 31
0.0
  0
ENDBLK
  5
202
330
200
100
AcDbEntity
  8
0
100
AcDbBlockEnd
  0
BLOCK
  5
20D
330
20C
100
AcDbEntity
  8
0
100
AcDbBlockBegin
  2
SW_CENTERMARKSYMBOL_1
 70
     0
 10
0.0
 20
0.0
 30
0.0
  3
SW_CENTERMARKSYMBOL_1
  1

  0
LINE
  5
20F
330
20C
100
AcDbEntity
  8
0
  6
SLD-Solid
 62
     0
370
     0
100
AcDbLine
 10
0.0
 20
0.0
 30
0.0
 11
0.0
 21
2.5
 31
0.0
  0
LINE
  5
210
330
20C
100
AcDbEntity
  8
0
  6
SLD-Solid
 62
     0
370
     0
100
AcDbLine
 10
0.0
 20
0.0
 30
0.0
 11
-2.5
 21
0.0
 31
0.0
  0
LINE
  5
211
330
20C
100
AcDbEntity
  8
0
  6
SLD-Solid
 62
     0
370
     0
100
AcDbLine
 10
0.0
 20
0.0
 30
0.0
 11
0.0
 21
-2.5
 31
0.0
  0
LINE
  5
212
330
20C
100
AcDbEntity
  8
0
  6
SLD-Solid
 62
     0
370
     0
100
AcDbLine
 10
0.0
 20
0.0
 30
0.0
 11
2.5
 21
0.0
 31
0.0
  0
LINE
  5
213
330
20C
100
AcDbEntity
  8
0
  6
SLD-Solid
 62
     0
370
     0
100
AcDbLine
 10
0.0
 20
5.0
 30
0.0
 11
0.0
 21
5.7
 31
0.0
  0
LINE
  5
214
330
20C
100
AcDbEntity
  8
0
  6
SLD-Solid
 62
     0
370
     0
100
AcDbLine
 10
-5.0
 20
0.0
 30
0.0
 11
-5.7
 21
0.0
 31
0.0
  0
LINE
  5
215
330
20C
100
AcDbEntity
  8
0
  6
SLD-Solid
 62
     0
370
     0
100
AcDbLine
 10
0.0
 20
-5.0
 30
0.0
 11
0.0
 21
-5.7
 31
0.0
  0
LINE
  5
216
330
20C
100
AcDbEntity
  8
0
  6
SLD-Solid
 62
     0
370
     0
100
AcDbLine
 10
5.0
 20
0.0
 30
0.0
 11
5.7
 21
0.0
 31
0.0
  0
ENDBLK
  5
20E
330
20C
100
AcDbEntity
  8
0
100
AcDbBlockEnd
  0
BLOCK
  5
219
330
218
100
AcDbEntity
  8
0
100
AcDbBlockBegin
  2
SW_CENTERMARKSYMBOL_2
 70
     0
 10
0.0
 20
0.0
 30
0.0
  3
SW_CENTERMARKSYMBOL_2
  1

  0
LINE
  5
21B
330
218
100
AcDbEntity
  8
0
  6
SLD-Solid
 62
     0
370
     0
100
AcDbLine
 10
0.0
 20
0.0
 30
0.0
 11
0.0
 21
2.5
 31
0.0
  0
LINE
  5
21C
330
218
100
AcDbEntity
  8
0
  6
SLD-Solid
 62
     0
370
     0
100
AcDbLine
 10
0.0
 20
0.0
 30
0.0
 11
-2.5
 21
0.0
 31
0.0
  0
LINE
  5
21D
330
218
100
AcDbEntity
  8
0
  6
SLD-Solid
 62
     0
370
     0
100
AcDbLine
 10
0.0
 20
0.0
 30
0.0
 11
0.0
 21
-2.5
 31
0.0
  0
LINE
  5
21E
330
218
100
AcDbEntity
  8
0
  6
SLD-Solid
 62
     0
370
     0
100
AcDbLine
 10
0.0
 20
0.0
 30
0.0
 11
2.5
 21
0.0
 31
0.0
  0
LINE
  5
21F
330
218
100
AcDbEntity
  8
0
  6
SLD-Solid
 62
     0
370
     0
100
AcDbLine
 10
0.0
 20
5.0
 30
0.0
 11
0.0
 21
8.1
 31
0.0
  0
LINE
  5
220
330
218
100
AcDbEntity
  8
0
  6
SLD-Solid
 62
     0
370
     0
100
AcDbLine
 10
-5.0
 20
0.0
 30
0.0
 11
-8.1
 21
0.0
 31
0.0
  0
LINE
  5
221
330
218
100
AcDbEntity
  8
0
  6
SLD-Solid
 62
     0
370
     0
100
AcDbLine
 10
0.0
 20
-5.0
 30
0.0
 11
0.0
 21
-8.1
 31
0.0
  0
LINE
  5
222
330
218
100
AcDbEntity
  8
0
  6
SLD-Solid
 62
     0
370
     0
100
AcDbLine
 10
5.0
 20
0.0
 30
0.0
 11
8.1
 21
0.0
 31
0.0
  0
ENDBLK
  5
21A
330
218
100
AcDbEntity
  8
0
100
AcDbBlockEnd
  0
BLOCK
  5
225
330
224
100
AcDbEntity
  8
0
100
AcDbBlockBegin
  2
SW_CENTERMARKSYMBOL_3
 70
     0
 10
0.0
 20
0.0
 30
0.0
  3
SW_CENTERMARKSYMBOL_3
  1

  0
LINE
  5
227
330
224
100
AcDbEntity
  8
0
  6
SLD-Solid
 62
     0
370
     0
100
AcDbLine
 10
0.0
 20
0.0
 30
0.0
 11
0.0
 21
2.5
 31
0.0
  0
LINE
  5
228
330
224
100
AcDbEntity
  8
0
  6
SLD-Solid
 62
     0
370
     0
100
AcDbLine
 10
0.0
 20
0.0
 30
0.0
 11
-2.5
 21
0.0
 31
0.0
  0
LINE
  5
229
330
224
100
AcDbEntity
  8
0
  6
SLD-Solid
 62
     0
370
     0
100
AcDbLine
 10
0.0
 20
0.0
 30
0.0
 11
0.0
 21
-2.5
 31
0.0
  0
LINE
  5
22A
330
224
100
AcDbEntity
  8
0
  6
SLD-Solid
 62
     0
370
     0
100
AcDbLine
 10
0.0
 20
0.0
 30
0.0
 11
2.5
 21
0.0
 31
0.0
  0
LINE
  5
22B
330
224
100
AcDbEntity
  8
0
  6
SLD-Solid
 62
     0
370
     0
100
AcDbLine
 10
0.0
 20
5.0
 30
0.0
 11
0.0
 21
8.1
 31
0.0
  0
LINE
  5
22C
330
224
100
AcDbEntity
  8
0
  6
SLD-Solid
 62
     0
370
     0
100
AcDbLine
 10
-5.0
 20
0.0
 30
0.0
 11
-8.1
 21
0.0
 31
0.0
  0
LINE
  5
22D
330
224
100
AcDbEntity
  8
0
  6
SLD-Solid
 62
     0
370
     0
100
AcDbLine
 10
0.0
 20
-5.0
 30
0.0
 11
0.0
 21
-8.1
 31
0.0
  0
LINE
  5
22E
330
224
100
AcDbEntity
  8
0
  6
SLD-Solid
 62
     0
370
     0
100
AcDbLine
 10
5.0
 20
0.0
 30
0.0
 11
8.1
 21
0.0
 31
0.0
  0
ENDBLK
  5
226
330
224
100
AcDbEntity
  8
0
100
AcDbBlockEnd
  0
BLOCK
  5
231
330
230
100
AcDbEntity
  8
0
100
AcDbBlockBegin
  2
SW_CENTERMARKSYMBOL_4
 70
     0
 10
0.0
 20
0.0
 30
0.0
  3
SW_CENTERMARKSYMBOL_4
  1

  0
LINE
  5
233
330
230
100
AcDbEntity
  8
0
  6
SLD-Solid
 62
     0
370
     0
100
AcDbLine
 10
0.0
 20
0.0
 30
0.0
 11
0.0
 21
2.5
 31
0.0
  0
LINE
  5
234
330
230
100
AcDbEntity
  8
0
  6
SLD-Solid
 62
     0
370
     0
100
AcDbLine
 10
0.0
 20
0.0
 30
0.0
 11
-2.5
 21
0.0
 31
0.0
  0
LINE
  5
235
330
230
100
AcDbEntity
  8
0
  6
SLD-Solid
 62
     0
370
     0
100
AcDbLine
 10
0.0
 20
0.0
 30
0.0
 11
0.0
 21
-2.5
 31
0.0
  0
LINE
  5
236
330
230
100
AcDbEntity
  8
0
  6
SLD-Solid
 62
     0
370
     0
100
AcDbLine
 10
0.0
 20
0.0
 30
0.0
 11
2.5
 21
0.0
 31
0.0
  0
LINE
  5
237
330
230
100
AcDbEntity
  8
0
  6
SLD-Solid
 62
     0
370
     0
100
AcDbLine
 10
0.0
 20
5.0
 30
0.0
 11
0.0
 21
5.7
 31
0.0
  0
LINE
  5
238
330
230
100
AcDbEntity
  8
0
  6
SLD-Solid
 62
     0
370
     0
100
AcDbLine
 10
-5.0
 20
0.0
 30
0.0
 11
-5.7
 21
0.0
 31
0.0
  0
LINE
  5
239
330
230
100
AcDbEntity
  8
0
  6
SLD-Solid
 62
     0
370
     0
100
AcDbLine
 10
0.0
 20
-5.0
 30
0.0
 11
0.0
 21
-5.7
 31
0.0
  0
LINE
  5
23A
330
230
100
AcDbEntity
  8
0
  6
SLD-Solid
 62
     0
370
     0
100
AcDbLine
 10
5.0
 20
0.0
 30
0.0
 11
5.7
 21
0.0
 31
0.0
  0
ENDBLK
  5
232
330
230
100
AcDbEntity
  8
0
100
AcDbBlockEnd
  0
BLOCK
  5
23D
330
23C
100
AcDbEntity
  8
0
100
AcDbBlockBegin
  2
SW_CENTERMARKSYMBOL_5
 70
     0
 10
0.0
 20
0.0
 30
0.0
  3
SW_CENTERMARKSYMBOL_5
  1

  0
LINE
  5
23F
330
23C
100
AcDbEntity
  8
0
  6
SLD-Solid
 62
     0
370
     0
100
AcDbLine
 10
0.0
 20
0.0
 30
0.0
 11
0.0
 21
2.5
 31
0.0
  0
LINE
  5
240
330
23C
100
AcDbEntity
  8
0
  6
SLD-Solid
 62
     0
370
     0
100
AcDbLine
 10
0.0
 20
0.0
 30
0.0
 11
-2.5
 21
0.0
 31
0.0
  0
LINE
  5
241
330
23C
100
AcDbEntity
  8
0
  6
SLD-Solid
 62
     0
370
     0
100
AcDbLine
 10
0.0
 20
0.0
 30
0.0
 11
0.0
 21
-2.5
 31
0.0
  0
LINE
  5
242
330
23C
100
AcDbEntity
  8
0
  6
SLD-Solid
 62
     0
370
     0
100
AcDbLine
 10
0.0
 20
0.0
 30
0.0
 11
2.5
 21
0.0
 31
0.0
  0
LINE
  5
243
330
23C
100
AcDbEntity
  8
0
  6
SLD-Solid
 62
     0
370
     0
100
AcDbLine
 10
0.0
 20
5.0
 30
0.0
 11
0.0
 21
5.7
 31
0.0
  0
LINE
  5
244
330
23C
100
AcDbEntity
  8
0
  6
SLD-Solid
 62
     0
370
     0
100
AcDbLine
 10
-5.0
 20
0.0
 30
0.0
 11
-5.7
 21
0.0
 31
0.0
  0
LINE
  5
245
330
23C
100
AcDbEntity
  8
0
  6
SLD-Solid
 62
     0
370
     0
100
AcDbLine
 10
0.0
 20
-5.0
 30
0.0
 11
0.0
 21
-5.7
 31
0.0
  0
LINE
  5
246
330
23C
100
AcDbEntity
  8
0
  6
SLD-Solid
 62
     0
370
     0
100
AcDbLine
 10
5.0
 20
0.0
 30
0.0
 11
5.7
 21
0.0
 31
0.0
  0
ENDBLK
  5
23E
330
23C
100
AcDbEntity
  8
0
100
AcDbBlockEnd
  0
BLOCK
  5
249
330
248
100
AcDbEntity
  8
0
100
AcDbBlockBegin
  2
SW_CENTERMARKSYMBOL_6
 70
     0
 10
0.0
 20
0.0
 30
0.0
  3
SW_CENTERMARKSYMBOL_6
  1

  0
LINE
  5
24B
330
248
100
AcDbEntity
  8
0
  6
SLD-Solid
 62
     0
370
     0
100
AcDbLine
 10
0.0
 20
0.0
 30
0.0
 11
0.0
 21
2.5
 31
0.0
  0
LINE
  5
24C
330
248
100
AcDbEntity
  8
0
  6
SLD-Solid
 62
     0
370
     0
100
AcDbLine
 10
0.0
 20
0.0
 30
0.0
 11
-2.5
 21
0.0
 31
0.0
  0
LINE
  5
24D
330
248
100
AcDbEntity
  8
0
  6
SLD-Solid
 62
     0
370
     0
100
AcDbLine
 10
0.0
 20
0.0
 30
0.0
 11
0.0
 21
-2.5
 31
0.0
  0
LINE
  5
24E
330
248
100
AcDbEntity
  8
0
  6
SLD-Solid
 62
     0
370
     0
100
AcDbLine
 10
0.0
 20
0.0
 30
0.0
 11
2.5
 21
0.0
 31
0.0
  0
LINE
  5
24F
330
248
100
AcDbEntity
  8
0
  6
SLD-Solid
 62
     0
370
     0
100
AcDbLine
 10
0.0
 20
5.0
 30
0.0
 11
0.0
 21
5.05
 31
0.0
  0
LINE
  5
250
330
248
100
AcDbEntity
  8
0
  6
SLD-Solid
 62
     0
370
     0
100
AcDbLine
 10
-5.0
 20
0.0
 30
0.0
 11
-5.05
 21
0.0
 31
0.0
  0
LINE
  5
251
330
248
100
AcDbEntity
  8
0
  6
SLD-Solid
 62
     0
370
     0
100
AcDbLine
 10
0.0
 20
-5.0
 30
0.0
 11
0.0
 21
-5.05
 31
0.0
  0
LINE
  5
252
330
248
100
AcDbEntity
  8
0
  6
SLD-Solid
 62
     0
370
     0
100
AcDbLine
 10
5.0
 20
0.0
 30
0.0
 11
5.05
 21
0.0
 31
0.0
  0
ENDBLK
  5
24A
330
248
100
AcDbEntity
  8
0
100
AcDbBlockEnd
  0
BLOCK
  5
255
330
254
100
AcDbEntity
  8
0
100
AcDbBlockBegin
  2
SW_CENTERMARKSYMBOL_7
 70
     0
 10
0.0
 20
0.0
 30
0.0
  3
SW_CENTERMARKSYMBOL_7
  1

  0
LINE
  5
257
330
254
100
AcDbEntity
  8
0
  6
SLD-Solid
 62
     0
370
     0
100
AcDbLine
 10
0.0
 20
0.0
 30
0.0
 11
0.0
 21
2.5
 31
0.0
  0
LINE
  5
258
330
254
100
AcDbEntity
  8
0
  6
SLD-Solid
 62
     0
370
     0
100
AcDbLine
 10
0.0
 20
0.0
 30
0.0
 11
-2.5
 21
0.0
 31
0.0
  0
LINE
  5
259
330
254
100
AcDbEntity
  8
0
  6
SLD-Solid
 62
     0
370
     0
100
AcDbLine
 10
0.0
 20
0.0
 30
0.0
 11
0.0
 21
-2.5
 31
0.0
  0
LINE
  5
25A
330
254
100
AcDbEntity
  8
0
  6
SLD-Solid
 62
     0
370
     0
100
AcDbLine
 10
0.0
 20
0.0
 30
0.0
 11
2.5
 21
0.0
 31
0.0
  0
LINE
  5
25B
330
254
100
AcDbEntity
  8
0
  6
SLD-Solid
 62
     0
370
     0
100
AcDbLine
 10
0.0
 20
5.0
 30
0.0
 11
0.0
 21
5.05
 31
0.0
  0
LINE
  5
25C
330
254
100
AcDbEntity
  8
0
  6
SLD-Solid
 62
     0
370
     0
100
AcDbLine
 10
-5.0
 20
0.0
 30
0.0
 11
-5.05
 21
0.0
 31
0.0
  0
LINE
  5
25D
330
254
100
AcDbEntity
  8
0
  6
SLD-Solid
 62
     0
370
     0
100
AcDbLine
 10
0.0
 20
-5.0
 30
0.0
 11
0.0
 21
-5.05
 31
0.0
  0
LINE
  5
25E
330
254
100
AcDbEntity
  8
0
  6
SLD-Solid
 62
     0
370
     0
100
AcDbLine
 10
5.0
 20
0.0
 30
0.0
 11
5.05
 21
0.0
 31
0.0
  0
ENDBLK
  5
256
330
254
100
AcDbEntity
  8
0
100
AcDbBlockEnd
  0
BLOCK
  5
261
330
260
100
AcDbEntity
  8
0
100
AcDbBlockBegin
  2
SW_CENTERMARKSYMBOL_8
 70
     0
 10
0.0
 20
0.0
 30
0.0
  3
SW_CENTERMARKSYMBOL_8
  1

  0
LINE
  5
263
330
260
100
AcDbEntity
  8
0
  6
SLD-Solid
 62
     0
370
     0
100
AcDbLine
 10
0.0
 20
0.0
 30
0.0
 11
0.0
 21
2.5
 31
0.0
  0
LINE
  5
264
330
260
100
AcDbEntity
  8
0
  6
SLD-Solid
 62
     0
370
     0
100
AcDbLine
 10
0.0
 20
0.0
 30
0.0
 11
-2.5
 21
0.0
 31
0.0
  0
LINE
  5
265
330
260
100
AcDbEntity
  8
0
  6
SLD-Solid
 62
     0
370
     0
100
AcDbLine
 10
0.0
 20
0.0
 30
0.0
 11
0.0
 21
-2.5
 31
0.0
  0
LINE
  5
266
330
260
100
AcDbEntity
  8
0
  6
SLD-Solid
 62
     0
370
     0
100
AcDbLine
 10
0.0
 20
0.0
 30
0.0
 11
2.5
 21
0.0
 31
0.0
  0
LINE
  5
267
330
260
100
AcDbEntity
  8
0
  6
SLD-Solid
 62
     0
370
     0
100
AcDbLine
 10
0.0
 20
5.0
 30
0.0
 11
0.0
 21
5.05
 31
0.0
  0
LINE
  5
268
330
260
100
AcDbEntity
  8
0
  6
SLD-Solid
 62
     0
370
     0
100
AcDbLine
 10
-5.0
 20
0.0
 30
0.0
 11
-5.05
 21
0.0
 31
0.0
  0
LINE
  5
269
330
260
100
AcDbEntity
  8
0
  6
SLD-Solid
 62
     0
370
     0
100
AcDbLine
 10
0.0
 20
-5.0
 30
0.0
 11
0.0
 21
-5.05
 31
0.0
  0
LINE
  5
26A
330
260
100
AcDbEntity
  8
0
  6
SLD-Solid
 62
     0
370
     0
100
AcDbLine
 10
5.0
 20
0.0
 30
0.0
 11
5.05
 21
0.0
 31
0.0
  0
ENDBLK
  5
262
330
260
100
AcDbEntity
  8
0
100
AcDbBlockEnd
  0
BLOCK
  5
26D
330
26C
100
AcDbEntity
  8
0
100
AcDbBlockBegin
  2
SW_CENTERMARKSYMBOL_9
 70
     0
 10
0.0
 20
0.0
 30
0.0
  3
SW_CENTERMARKSYMBOL_9
  1

  0
LINE
  5
26F
330
26C
100
AcDbEntity
  8
0
  6
SLD-Solid
 62
     0
370
     0
100
AcDbLine
 10
0.0
 20
0.0
 30
0.0
 11
0.0
 21
2.5
 31
0.0
  0
LINE
  5
270
330
26C
100
AcDbEntity
  8
0
  6
SLD-Solid
 62
     0
370
     0
100
AcDbLine
 10
0.0
 20
0.0
 30
0.0
 11
-2.5
 21
0.0
 31
0.0
  0
LINE
  5
271
330
26C
100
AcDbEntity
  8
0
  6
SLD-Solid
 62
     0
370
     0
100
AcDbLine
 10
0.0
 20
0.0
 30
0.0
 11
0.0
 21
-2.5
 31
0.0
  0
LINE
  5
272
330
26C
100
AcDbEntity
  8
0
  6
SLD-Solid
 62
     0
370
     0
100
AcDbLine
 10
0.0
 20
0.0
 30
0.0
 11
2.5
 21
0.0
 31
0.0
  0
LINE
  5
273
330
26C
100
AcDbEntity
  8
0
  6
SLD-Solid
 62
     0
370
     0
100
AcDbLine
 10
0.0
 20
5.0
 30
0.0
 11
0.0
 21
5.05
 31
0.0
  0
LINE
  5
274
330
26C
100
AcDbEntity
  8
0
  6
SLD-Solid
 62
     0
370
     0
100
AcDbLine
 10
-5.0
 20
0.0
 30
0.0
 11
-5.05
 21
0.0
 31
0.0
  0
LINE
  5
275
330
26C
100
AcDbEntity
  8
0
  6
SLD-Solid
 62
     0
370
     0
100
AcDbLine
 10
0.0
 20
-5.0
 30
0.0
 11
0.0
 21
-5.05
 31
0.0
  0
LINE
  5
276
330
26C
100
AcDbEntity
  8
0
  6
SLD-Solid
 62
     0
370
     0
100
AcDbLine
 10
5.0
 20
0.0
 30
0.0
 11
5.05
 21
0.0
 31
0.0
  0
ENDBLK
  5
26E
330
26C
100
AcDbEntity
  8
0
100
AcDbBlockEnd
  0
BLOCK
  5
279
330
278
100
AcDbEntity
  8
0
100
AcDbBlockBegin
  2
SW_DATUMORIGIN_0
 70
     0
 10
0.0
 20
0.0
 30
0.0
  3
SW_DATUMORIGIN_0
  1

  0
CIRCLE
  5
27B
330
278
100
AcDbEntity
  8
YELLOW
 62
     0
100
AcDbCircle
 10
0.0
 20
-23.0228887267
 30
0.0
 40
2.500000000000002
  0
CIRCLE
  5
27C
330
278
100
AcDbEntity
  8
YELLOW
 62
     0
100
AcDbCircle
 10
-27.0851994411
 20
5.0
 30
0.0
 40
2.500000000000002
  0
SOLID
  5
27D
330
278
100
AcDbEntity
  8
YELLOW
 62
     0
100
AcDbTrace
 10
54.4026208676
 20
-23.0228887267
 30
0.0
 11
46.4651208676
 21
-21.8017348806
 31
0.0
 12
46.4651208676
 22
-24.2440425729
 32
0.0
 13
46.4651208676
 23
-24.2440425729
 33
0.0
  0
SOLID
  5
27E
330
278
100
AcDbEntity
  8
YELLOW
 62
     0
100
AcDbTrace
 10
-27.0851994411
 20
41.5865244405
 30
0.0
 11
-28.3063532873
 21
33.6490244405
 31
0.0
 12
-25.8640455949
 22
33.6490244405
 32
0.0
 13
-25.8640455949
 23
33.6490244405
 33
0.0
  0
LINE
  5
27F
330
278
100
AcDbEntity
  8
YELLOW
 62
     0
100
AcDbLine
 10
0.0
 20
0.0
 30
0.0
 11
0.0
 21
-13.0228887267
 31
0.0
  0
LINE
  5
280
330
278
100
AcDbEntity
  8
YELLOW
 62
     0
100
AcDbLine
 10
0.0
 20
-23.0228887267
 30
0.0
 11
46.4651208676
 21
-23.0228887267
 31
0.0
  0
LINE
  5
281
330
278
100
AcDbEntity
  8
YELLOW
 62
     0
100
AcDbLine
 10
-5.0
 20
5.0
 30
0.0
 11
-37.0851994411
 21
5.0
 31
0.0
  0
LINE
  5
282
330
278
100
AcDbEntity
  8
YELLOW
 62
     0
100
AcDbLine
 10
-27.0851994411
 20
5.0
 30
0.0
 11
-27.0851994411
 21
33.6490244405
 31
0.0
  0
MTEXT
  5
283
330
278
100
AcDbEntity
  8
YELLOW
 62
     0
100
AcDbMText
 10
57.4885923168
 20
-31.6184570077
 30
0.0
 40
7.9375
 41
0.0
 71
     1
 72
     1
  1
X
  7
SLDTEXTSTYLE0
 73
     1
 44
1.0
  0
MTEXT
  5
284
330
278
100
AcDbEntity
  8
YELLOW
 62
     0
100
AcDbMText
 10
-30.2161022101
 20
54.9437027847
 30
-19.0
 40
7.9375
 41
0.0
 71
     1
 72
     1
  1
Y
  7
SLDTEXTSTYLE0
 73
     1
 44
1.0
  0
ENDBLK
  5
27A
330
278
100
AcDbEntity
  8
0
100
AcDbBlockEnd
  0
BLOCK
  5
2F7
330
2F6
100
AcDbEntity
  8
0
100
AcDbBlockBegin
  2
_D_11
 70
     0
 10
0.0
 20
0.0
 30
0.0
  3
_D_11
  1

  0
SOLID
  5
2F9
330
2F6
100
AcDbEntity
  8
YELLOW
100
AcDbTrace
 10
977.0664003476
 20
439.0966381115
 30
0.0
 11
969.1289003476
 21
440.3177919576
 31
0.0
 12
969.1289003476
 22
437.8754842653
 32
0.0
 13
969.1289003476
 23
437.8754842653
 33
0.0
  0
SOLID
  5
2FA
330
2F6
100
AcDbEntity
  8
YELLOW
100
AcDbTrace
 10
161.0664003476
 20
439.0966381115
 30
0.0
 11
169.0039003476
 21
437.8754842653
 31
0.0
 12
169.0039003476
 22
440.3177919576
 32
0.0
 13
169.0039003476
 23
440.3177919576
 33
0.0
  0
LINE
  5
2FB
330
2F6
100
AcDbEntity
  8
YELLOW
100
AcDbLine
 10
977.0664003476
 20
476.0966631115
 30
0.0
 11
977.0664003476
 21
434.0966381115
 31
0.0
  0
LINE
  5
2FC
330
2F6
100
AcDbEntity
  8
YELLOW
100
AcDbLine
 10
161.0664003476
 20
476.0966631115
 30
0.0
 11
161.0664003476
 21
434.0966381115
 31
0.0
  0
LINE
  5
2FD
330
2F6
100
AcDbEntity
  8
YELLOW
100
AcDbLine
 10
977.0664003476
 20
439.0966381115
 30
0.0
 11
161.0664003476
 21
439.0966381115
 31
0.0
  0
MTEXT
  5
2FE
330
2F6
100
AcDbEntity
  8
YELLOW
100
AcDbMText
 10
560.9028294986
 20
449.2355529629
 30
0.0
 40
7.9375
 41
0.0
 71
     1
 72
     1
  1
816
  7
SLDTEXTSTYLE0
 73
     1
 44
1.0
  0
ENDBLK
  5
2F8
330
2F6
100
AcDbEntity
  8
0
100
AcDbBlockEnd
  0
BLOCK
  5
301
330
300
100
AcDbEntity
  8
0
100
AcDbBlockBegin
  2
_D_12
 70
     0
 10
0.0
 20
0.0
 30
0.0
  3
_D_12
  1

  0
SOLID
  5
303
330
300
100
AcDbEntity
  8
YELLOW
100
AcDbTrace
 10
121.0638753476
 20
529.0966631115
 30
0.0
 11
122.2850291937
 21
537.0341631115
 31
0.0
 12
119.8427215014
 22
537.0341631115
 32
0.0
 13
119.8427215014
 23
537.0341631115
 33
0.0
  0
SOLID
  5
304
330
300
100
AcDbEntity
  8
YELLOW
100
AcDbTrace
 10
121.0638753476
 20
479.0966631115
 30
0.0
 11
119.8427215014
 21
471.1591631115
 31
0.0
 12
122.2850291937
 22
471.1591631115
 32
0.0
 13
122.2850291937
 23
471.1591631115
 33
0.0
  0
LINE
  5
305
330
300
100
AcDbEntity
  8
YELLOW
100
AcDbLine
 10
158.0664003476
 20
529.0966631115
 30
0.0
 11
116.0638753476
 21
529.0966631115
 31
0.0
  0
LINE
  5
306
330
300
100
AcDbEntity
  8
YELLOW
100
AcDbLine
 10
158.0664003476
 20
479.0966631115
 30
0.0
 11
116.0638753476
 21
479.0966631115
 31
0.0
  0
LINE
  5
307
330
300
100
AcDbEntity
  8
YELLOW
100
AcDbLine
 10
121.0638753476
 20
529.0966631115
 30
0.0
 11
121.0638753476
 21
544.3610861884
 31
0.0
  0
LINE
  5
308
330
300
100
AcDbEntity
  8
YELLOW
100
AcDbLine
 10
121.0638753476
 20
529.0966631115
 30
0.0
 11
121.0638753476
 21
479.0966631115
 31
0.0
  0
LINE
  5
309
330
300
100
AcDbEntity
  8
YELLOW
100
AcDbLine
 10
121.0638753476
 20
479.0966631115
 30
0.0
 11
121.0638753476
 21
463.8322400345
 31
0.0
  0
MTEXT
  5
30A
330
300
100
AcDbEntity
  8
YELLOW
100
AcDbMText
 10
110.9249604961
 20
498.6542825455
 30
0.0
 40
7.9375
 41
0.0
 71
     1
 72
     1
  1
50
  7
SLDTEXTSTYLE0
 11
-7.044195017643634E-15
 21
1.0
 31
0.0
 73
     1
 44
1.0
  0
ENDBLK
  5
302
330
300
100
AcDbEntity
  8
0
100
AcDbBlockEnd
  0
BLOCK
  5
368
330
367
100
AcDbEntity
  8
0
100
AcDbBlockBegin
  2
_D_13
 70
     0
 10
0.0
 20
0.0
 30
0.0
  3
_D_13
  1

  0
SOLID
  5
36A
330
367
100
AcDbEntity
  8
YELLOW
100
AcDbTrace
 10
1438.4037492717
 20
558.0966818615
 30
0.0
 11
1437.1825954255
 21
550.1591818615
 31
0.0
 12
1439.6249031178
 22
550.1591818615
 32
0.0
 13
1439.6249031178
 23
550.1591818615
 33
0.0
  0
SOLID
  5
36B
330
367
100
AcDbEntity
  8
YELLOW
100
AcDbTrace
 10
1438.4037492717
 20
580.5966818615
 30
0.0
 11
1439.6249031178
 21
588.5341818615
 31
0.0
 12
1437.1825954255
 22
588.5341818615
 32
0.0
 13
1437.1825954255
 23
588.5341818615
 33
0.0
  0
LINE
  5
36C
330
367
100
AcDbEntity
  8
YELLOW
100
AcDbLine
 10
1394.4696046517
 20
558.0966818615
 30
0.0
 11
1443.4037492717
 21
558.0966818615
 31
0.0
  0
LINE
  5
36D
330
367
100
AcDbEntity
  8
YELLOW
100
AcDbLine
 10
1394.4696046517
 20
580.5966818615
 30
0.0
 11
1443.4037492717
 21
580.5966818615
 31
0.0
  0
LINE
  5
36E
330
367
100
AcDbEntity
  8
YELLOW
100
AcDbLine
 10
1438.4037492717
 20
558.0966818615
 30
0.0
 11
1438.4037492717
 21
542.8322587845
 31
0.0
  0
LINE
  5
36F
330
367
100
AcDbEntity
  8
YELLOW
100
AcDbLine
 10
1438.4037492717
 20
558.0966818615
 30
0.0
 11
1438.4037492717
 21
580.5966818615
 31
0.0
  0
LINE
  5
370
330
367
100
AcDbEntity
  8
YELLOW
100
AcDbLine
 10
1438.4037492717
 20
580.5966818615
 30
0.0
 11
1438.4037492717
 21
595.8611049384
 31
0.0
  0
MTEXT
  5
371
330
367
100
AcDbEntity
  8
YELLOW
100
AcDbMText
 10
1428.2648344202
 20
566.6254915784
 30
0.0
 40
7.9375
 41
0.0
 71
     1
 72
     1
  1
9
  7
SLDTEXTSTYLE0
 11
-3.491481338843133E-15
 21
1.0
 31
0.0
 73
     1
 44
1.0
  0
ENDBLK
  5
369
330
367
100
AcDbEntity
  8
0
100
AcDbBlockEnd
  0
BLOCK
  5
374
330
373
100
AcDbEntity
  8
0
100
AcDbBlockBegin
  2
_D_14
 70
     0
 10
0.0
 20
0.0
 30
0.0
  3
_D_14
  1

  0
SOLID
  5
376
330
373
100
AcDbEntity
  8
YELLOW
100
AcDbTrace
 10
1010.3534881282
 20
608.9445253536
 30
0.0
 11
1002.4159881282
 21
610.1656791998
 31
0.0
 12
1002.4159881282
 22
607.7233715075
 32
0.0
 13
1002.4159881282
 23
607.7233715075
 33
0.0
  0
SOLID
  5
377
330
373
100
AcDbEntity
  8
YELLOW
100
AcDbTrace
 10
1032.8534881282
 20
608.9445253536
 30
0.0
 11
1040.7909881282
 21
607.7233715075
 31
0.0
 12
1040.7909881282
 22
610.1656791998
 32
0.0
 13
1040.7909881282
 23
610.1656791998
 33
0.0
  0
LINE
  5
378
330
373
100
AcDbEntity
  8
YELLOW
100
AcDbLine
 10
1010.3534881282
 20
562.212798385
 30
0.0
 11
1010.3534881282
 21
613.9445253536
 31
0.0
  0
LINE
  5
379
330
373
100
AcDbEntity
  8
YELLOW
100
AcDbLine
 10
1032.8534881282
 20
562.212798385
 30
0.0
 11
1032.8534881282
 21
613.9445253536
 31
0.0
  0
LINE
  5
37A
330
373
100
AcDbEntity
  8
YELLOW
100
AcDbLine
 10
1010.3534881282
 20
608.9445253536
 30
0.0
 11
995.0890650513
 21
608.9445253536
 31
0.0
  0
LINE
  5
37B
330
373
100
AcDbEntity
  8
YELLOW
100
AcDbLine
 10
1010.3534881282
 20
608.9445253536
 30
0.0
 11
1032.8534881282
 21
608.9445253536
 31
0.0
  0
LINE
  5
37C
330
373
100
AcDbEntity
  8
YELLOW
100
AcDbLine
 10
1032.8534881282
 20
608.9445253536
 30
0.0
 11
1048.1179112051
 21
608.9445253536
 31
0.0
  0
MTEXT
  5
37D
330
373
100
AcDbEntity
  8
YELLOW
100
AcDbMText
 10
1018.8822978452
 20
619.0834402051
 30
0.0
 40
7.9375
 41
0.0
 71
     1
 72
     1
  1
9
  7
SLDTEXTSTYLE0
 73
     1
 44
1.0
  0
ENDBLK
  5
375
330
373
100
AcDbEntity
  8
0
100
AcDbBlockEnd
  0
BLOCK
  5
380
330
37F
100
AcDbEntity
  8
0
100
AcDbBlockBegin
  2
_D_15
 70
     0
 10
0.0
 20
0.0
 30
0.0
  3
_D_15
  1

  0
SOLID
  5
382
330
37F
100
AcDbEntity
  8
YELLOW
100
AcDbTrace
 10
1355.3534881282
 20
620.5966818615
 30
0.0
 11
1347.4159881282
 21
621.8178357077
 31
0.0
 12
1347.4159881282
 22
619.3755280154
 32
0.0
 13
1347.4159881282
 23
619.3755280154
 33
0.0
  0
SOLID
  5
383
330
37F
100
AcDbEntity
  8
YELLOW
100
AcDbTrace
 10
1392.8534881282
 20
620.5966818615
 30
0.0
 11
1400.7909881282
 21
619.3755280154
 31
0.0
 12
1400.7909881282
 22
621.8178357077
 32
0.0
 13
1400.7909881282
 23
621.8178357077
 33
0.0
  0
LINE
  5
384
330
37F
100
AcDbEntity
  8
YELLOW
100
AcDbLine
 10
1355.3534881282
 20
556.8466818615
 30
0.0
 11
1355.3534881282
 21
625.5966818615
 31
0.0
  0
LINE
  5
385
330
37F
100
AcDbEntity
  8
YELLOW
100
AcDbLine
 10
1392.8534881282
 20
562.212798385
 30
0.0
 11
1392.8534881282
 21
625.5966818615
 31
0.0
  0
LINE
  5
386
330
37F
100
AcDbEntity
  8
YELLOW
100
AcDbLine
 10
1355.3534881282
 20
620.5966818615
 30
0.0
 11
1340.0890650513
 21
620.5966818615
 31
0.0
  0
LINE
  5
387
330
37F
100
AcDbEntity
  8
YELLOW
100
AcDbLine
 10
1355.3534881282
 20
620.5966818615
 30
0.0
 11
1392.8534881282
 21
620.5966818615
 31
0.0
  0
LINE
  5
388
330
37F
100
AcDbEntity
  8
YELLOW
100
AcDbLine
 10
1392.8534881282
 20
620.5966818615
 30
0.0
 11
1408.1179112051
 21
620.5966818615
 31
0.0
  0
MTEXT
  5
389
330
37F
100
AcDbEntity
  8
YELLOW
100
AcDbMText
 10
1368.6611075622
 20
630.735596713
 30
0.0
 40
7.9375
 41
0.0
 71
     1
 72
     1
  1
15
  7
SLDTEXTSTYLE0
 73
     1
 44
1.0
  0
ENDBLK
  5
381
330
37F
100
AcDbEntity
  8
0
100
AcDbBlockEnd
  0
BLOCK
  5
38D
330
38C
100
AcDbEntity
  8
0
100
AcDbBlockBegin
  2
_D_16
 70
     0
 10
0.0
 20
0.0
 30
0.0
  3
_D_16
  1

  0
SOLID
  5
38F
330
38C
100
AcDbEntity
  8
YELLOW
100
AcDbTrace
 10
1432.8598006282
 20
506.8466818615
 30
0.0
 11
1431.6386467821
 21
498.9091818615
 31
0.0
 12
1434.0809544744
 22
498.9091818615
 32
0.0
 13
1434.0809544744
 23
498.9091818615
 33
0.0
  0
SOLID
  5
390
330
38C
100
AcDbEntity
  8
YELLOW
100
AcDbTrace
 10
1432.8598006282
 20
435.5966818615
 30
0.0
 11
1434.0809544744
 21
443.5341818615
 31
0.0
 12
1431.6386467821
 22
443.5341818615
 32
0.0
 13
1431.6386467821
 23
443.5341818615
 33
0.0
  0
LINE
  5
391
330
38C
100
AcDbEntity
  8
YELLOW
100
AcDbLine
 10
1392.8534881282
 20
506.8466818615
 30
0.0
 11
1437.8598006282
 21
506.8466818615
 31
0.0
  0
LINE
  5
392
330
38C
100
AcDbEntity
  8
YELLOW
100
AcDbLine
 10
1392.8534881282
 20
435.5966818615
 30
0.0
 11
1437.8598006282
 21
435.5966818615
 31
0.0
  0
LINE
  5
393
330
38C
100
AcDbEntity
  8
YELLOW
100
AcDbLine
 10
1432.8598006282
 20
506.8466818615
 30
0.0
 11
1432.8598006282
 21
435.5966818615
 31
0.0
  0
MTEXT
  5
394
330
38C
100
AcDbEntity
  8
YELLOW
100
AcDbMText
 10
1422.7208857767
 20
461.0172183002
 30
0.0
 40
7.9375
 41
0.0
 71
     1
 72
     1
  1
28,5
  7
SLDTEXTSTYLE0
 11
-1.059690869644414E-14
 21
1.0
 31
0.0
 73
     1
 44
1.0
  0
ENDBLK
  5
38E
330
38C
100
AcDbEntity
  8
0
100
AcDbBlockEnd
  0
BLOCK
  5
397
330
396
100
AcDbEntity
  8
0
100
AcDbBlockBegin
  2
_D_17
 70
     0
 10
0.0
 20
0.0
 30
0.0
  3
_D_17
  1

  0
SOLID
  5
399
330
396
100
AcDbEntity
  8
YELLOW
100
AcDbTrace
 10
1392.8534881282
 20
395.5966193615
 30
0.0
 11
1384.9159881282
 21
396.8177732076
 31
0.0
 12
1384.9159881282
 22
394.3754655153
 32
0.0
 13
1384.9159881282
 23
394.3754655153
 33
0.0
  0
SOLID
  5
39A
330
396
100
AcDbEntity
  8
YELLOW
100
AcDbTrace
 10
1030.3534881282
 20
395.5966193614
 30
0.0
 11
1038.2909881282
 21
394.3754655153
 31
0.0
 12
1038.2909881282
 22
396.8177732076
 32
0.0
 13
1038.2909881282
 23
396.8177732076
 33
0.0
  0
LINE
  5
39B
330
396
100
AcDbEntity
  8
YELLOW
100
AcDbLine
 10
1392.8534881282
 20
435.5966818615
 30
0.0
 11
1392.8534881282
 21
390.5966193615
 31
0.0
  0
LINE
  5
39C
330
396
100
AcDbEntity
  8
YELLOW
100
AcDbLine
 10
1030.3534881282
 20
435.5966818615
 30
0.0
 11
1030.3534881282
 21
390.5966193614
 31
0.0
  0
LINE
  5
39D
330
396
100
AcDbEntity
  8
YELLOW
100
AcDbLine
 10
1392.8534881282
 20
395.5966193615
 30
0.0
 11
1030.3534881282
 21
395.5966193614
 31
0.0
  0
MTEXT
  5
39E
330
396
100
AcDbEntity
  8
YELLOW
100
AcDbMText
 10
1203.4399172792
 20
405.7355342129
 30
0.0
 40
7.9375
 41
0.0
 71
     1
 72
     1
  1
145
  7
SLDTEXTSTYLE0
 73
     1
 44
1.0
  0
ENDBLK
  5
398
330
396
100
AcDbEntity
  8
0
100
AcDbBlockEnd
  0
BLOCK
  5
3A1
330
3A0
100
AcDbEntity
  8
0
100
AcDbBlockBegin
  2
_D_18
 70
     0
 10
0.0
 20
0.0
 30
0.0
  3
_D_18
  1

  0
SOLID
  5
3A3
330
3A0
100
AcDbEntity
  8
YELLOW
100
AcDbTrace
 10
1274.3250651279
 20
551.8466818615
 30
0.0
 11
1275.546218974
 21
559.7841818615
 31
0.0
 12
1273.1039112817
 22
559.7841818615
 32
0.0
 13
1273.1039112817
 23
559.7841818615
 33
0.0
  0
SOLID
  5
3A4
330
3A0
100
AcDbEntity
  8
YELLOW
100
AcDbTrace
 10
1274.3250651279
 20
504.3466818615
 30
0.0
 11
1273.1039112817
 21
496.4091818615
 31
0.0
 12
1275.546218974
 22
496.4091818615
 32
0.0
 13
1275.546218974
 23
496.4091818615
 33
0.0
  0
LINE
  5
3A5
330
3A0
100
AcDbEntity
  8
YELLOW
100
AcDbLine
 10
1352.8534881282
 20
551.8466818615
 30
0.0
 11
1269.3250651279
 21
551.8466818615
 31
0.0
  0
LINE
  5
3A6
330
3A0
100
AcDbEntity
  8
YELLOW
100
AcDbLine
 10
1355.3534881282
 20
504.3466818615
 30
0.0
 11
1269.3250651279
 21
504.3466818615
 31
0.0
  0
LINE
  5
3A7
330
3A0
100
AcDbEntity
  8
YELLOW
100
AcDbLine
 10
1274.3250651279
 20
551.8466818615
 30
0.0
 11
1274.3250651279
 21
567.1111049384
 31
0.0
  0
LINE
  5
3A8
330
3A0
100
AcDbEntity
  8
YELLOW
100
AcDbLine
 10
1274.3250651279
 20
551.8466818615
 30
0.0
 11
1274.3250651279
 21
504.3466818615
 31
0.0
  0
LINE
  5
3A9
330
3A0
100
AcDbEntity
  8
YELLOW
100
AcDbLine
 10
1274.3250651279
 20
504.3466818615
 30
0.0
 11
1274.3250651279
 21
489.0822587845
 31
0.0
  0
MTEXT
  5
3AA
330
3A0
100
AcDbEntity
  8
YELLOW
100
AcDbMText
 10
1264.1861502764
 20
522.6543012954
 30
0.0
 40
7.9375
 41
0.0
 71
     1
 72
     1
  1
19
  7
SLDTEXTSTYLE0
 11
-7.044195017643634E-15
 21
1.0
 31
0.0
 73
     1
 44
1.0
  0
ENDBLK
  5
3A2
330
3A0
100
AcDbEntity
  8
0
100
AcDbBlockEnd
  0
BLOCK
  5
3AD
330
3AC
100
AcDbEntity
  8
0
100
AcDbBlockBegin
  2
_D_19
 70
     0
 10
0.0
 20
0.0
 30
0.0
  3
_D_19
  1

  0
SOLID
  5
3AF
330
3AC
100
AcDbEntity
  8
YELLOW
100
AcDbTrace
 10
986.2341428435
 20
485.5966818615
 30
0.0
 11
987.4552966897
 21
493.5341818615
 31
0.0
 12
985.0129889974
 22
493.5341818615
 32
0.0
 13
985.0129889974
 23
493.5341818615
 33
0.0
  0
SOLID
  5
3B0
330
3AC
100
AcDbEntity
  8
YELLOW
100
AcDbTrace
 10
986.2341428435
 20
435.5966818615
 30
0.0
 11
985.0129889974
 21
427.6591818615
 31
0.0
 12
987.4552966897
 22
427.6591818615
 32
0.0
 13
987.4552966897
 23
427.6591818615
 33
0.0
  0
LINE
  5
3B1
330
3AC
100
AcDbEntity
  8
YELLOW
100
AcDbLine
 10
1005.3534881282
 20
485.5966818615
 30
0.0
 11
981.2341428435
 21
485.5966818615
 31
0.0
  0
LINE
  5
3B2
330
3AC
100
AcDbEntity
  8
YELLOW
100
AcDbLine
 10
1030.3534881282
 20
435.5966818615
 30
0.0
 11
981.2341428435
 21
435.5966818615
 31
0.0
  0
LINE
  5
3B3
330
3AC
100
AcDbEntity
  8
YELLOW
100
AcDbLine
 10
986.2341428435
 20
485.5966818615
 30
0.0
 11
986.2341428435
 21
500.8611049384
 31
0.0
  0
LINE
  5
3B4
330
3AC
100
AcDbEntity
  8
YELLOW
100
AcDbLine
 10
986.2341428435
 20
485.5966818615
 30
0.0
 11
986.2341428435
 21
435.5966818615
 31
0.0
  0
LINE
  5
3B5
330
3AC
100
AcDbEntity
  8
YELLOW
100
AcDbLine
 10
986.2341428435
 20
435.5966818615
 30
0.0
 11
986.2341428435
 21
420.3322587845
 31
0.0
  0
MTEXT
  5
3B6
330
3AC
100
AcDbEntity
  8
YELLOW
100
AcDbMText
 10
976.095227992
 20
455.1543012954
 30
0.0
 40
7.9375
 41
0.0
 71
     1
 72
     1
  1
20
  7
SLDTEXTSTYLE0
 11
-1.059690869644414E-14
 21
1.0
 31
0.0
 73
     1
 44
1.0
  0
ENDBLK
  5
3AE
330
3AC
100
AcDbEntity
  8
0
100
AcDbBlockEnd
  0
BLOCK
  5
3F7
330
3F6
100
AcDbEntity
  8
0
100
AcDbBlockBegin
  2
_D_20
 70
     0
 10
0.0
 20
0.0
 30
0.0
  3
_D_20
  1

  0
SOLID
  5
3F9
330
3F6
100
AcDbEntity
  8
YELLOW
100
AcDbTrace
 10
822.2783582901
 20
317.3757859416
 30
0.0
 11
814.3408582901
 21
318.5969397878
 31
0.0
 12
814.3408582901
 22
316.1546320955
 32
0.0
 13
814.3408582901
 23
316.1546320955
 33
0.0
  0
SOLID
  5
3FA
330
3F6
100
AcDbEntity
  8
YELLOW
100
AcDbTrace
 10
863.5283582901
 20
317.3757859416
 30
0.0
 11
871.4658582901
 21
316.1546320955
 31
0.0
 12
871.4658582901
 22
318.5969397878
 32
0.0
 13
871.4658582901
 23
318.5969397878
 33
0.0
  0
LINE
  5
3FB
330
3F6
100
AcDbEntity
  8
YELLOW
100
AcDbLine
 10
822.2783582901
 20
271.8447798157
 30
0.0
 11
822.2783582901
 21
322.3757859416
 31
0.0
  0
LINE
  5
3FC
330
3F6
100
AcDbEntity
  8
YELLOW
100
AcDbLine
 10
863.5283582901
 20
296.8447798157
 30
0.0
 11
863.5283582901
 21
322.3757859416
 31
0.0
  0
LINE
  5
3FD
330
3F6
100
AcDbEntity
  8
YELLOW
100
AcDbLine
 10
822.2783582901
 20
317.3757859416
 30
0.0
 11
807.0139352132
 21
317.3757859416
 31
0.0
  0
LINE
  5
3FE
330
3F6
100
AcDbEntity
  8
YELLOW
100
AcDbLine
 10
822.2783582901
 20
317.3757859416
 30
0.0
 11
863.5283582901
 21
317.3757859416
 31
0.0
  0
LINE
  5
3FF
330
3F6
100
AcDbEntity
  8
YELLOW
100
AcDbLine
 10
863.5283582901
 20
317.3757859416
 30
0.0
 11
878.792781367
 21
317.3757859416
 31
0.0
  0
MTEXT
  5
400
330
3F6
100
AcDbEntity
  8
YELLOW
100
AcDbMText
 10
832.6988947289
 20
327.5147007931
 30
0.0
 40
7.9375
 41
0.0
 71
     1
 72
     1
  1
16,5
  7
SLDTEXTSTYLE0
 73
     1
 44
1.0
  0
ENDBLK
  5
3F8
330
3F6
100
AcDbEntity
  8
0
100
AcDbBlockEnd
  0
BLOCK
  5
403
330
402
100
AcDbEntity
  8
0
100
AcDbBlockBegin
  2
_D_21
 70
     0
 10
0.0
 20
0.0
 30
0.0
  3
_D_21
  1

  0
SOLID
  5
405
330
402
100
AcDbEntity
  8
YELLOW
100
AcDbTrace
 10
748.1162851547
 20
271.8447798157
 30
0.0
 11
746.8951313086
 21
263.9072798157
 31
0.0
 12
749.3374390009
 22
263.9072798157
 32
0.0
 13
749.3374390009
 23
263.9072798157
 33
0.0
  0
SOLID
  5
406
330
402
100
AcDbEntity
  8
YELLOW
100
AcDbTrace
 10
748.1162851547
 20
146.8447798157
 30
0.0
 11
749.3374390009
 21
154.7822798157
 31
0.0
 12
746.8951313086
 22
154.7822798157
 32
0.0
 13
746.8951313086
 23
154.7822798157
 33
0.0
  0
LINE
  5
407
330
402
100
AcDbEntity
  8
YELLOW
100
AcDbLine
 10
822.2783582901
 20
271.8447798157
 30
0.0
 11
743.1162851547
 21
271.8447798157
 31
0.0
  0
LINE
  5
408
330
402
100
AcDbEntity
  8
YELLOW
100
AcDbLine
 10
822.2783874964
 20
146.8447798157
 30
0.0
 11
743.1162851547
 21
146.8447798157
 31
0.0
  0
LINE
  5
409
330
402
100
AcDbEntity
  8
YELLOW
100
AcDbLine
 10
748.1162851547
 20
271.8447798157
 30
0.0
 11
748.1162851547
 21
146.8447798157
 31
0.0
  0
MTEXT
  5
40A
330
402
100
AcDbEntity
  8
YELLOW
100
AcDbMText
 10
737.9773703033
 20
203.9023992497
 30
0.0
 40
7.9375
 41
0.0
 71
     1
 72
     1
  1
50
  7
SLDTEXTSTYLE0
 11
-7.044195017643634E-15
 21
1.0
 31
0.0
 73
     1
 44
1.0
  0
ENDBLK
  5
404
330
402
100
AcDbEntity
  8
0
100
AcDbBlockEnd
  0
BLOCK
  5
40D
330
40C
100
AcDbEntity
  8
0
100
AcDbBlockBegin
  2
_D_22
 70
     0
 10
0.0
 20
0.0
 30
0.0
  3
_D_22
  1

  0
SOLID
  5
40F
330
40C
100
AcDbEntity
  8
YELLOW
100
AcDbTrace
 10
822.2783582901
 20
346.3447826901
 30
0.0
 11
814.3408582901
 21
347.5659365362
 31
0.0
 12
814.3408582901
 22
345.1236288439
 32
0.0
 13
814.3408582901
 23
345.1236288439
 33
0.0
  0
SOLID
  5
410
330
40C
100
AcDbEntity
  8
YELLOW
100
AcDbTrace
 10
872.2783582901
 20
346.3447826901
 30
0.0
 11
880.2158582901
 21
345.1236288439
 31
0.0
 12
880.2158582901
 22
347.5659365362
 32
0.0
 13
880.2158582901
 23
347.5659365362
 33
0.0
  0
LINE
  5
411
330
40C
100
AcDbEntity
  8
YELLOW
100
AcDbLine
 10
822.2783582901
 20
271.8447798157
 30
0.0
 11
822.2783582901
 21
351.3447826901
 31
0.0
  0
LINE
  5
412
330
40C
100
AcDbEntity
  8
YELLOW
100
AcDbLine
 10
872.2783582901
 20
273.4608963392
 30
0.0
 11
872.2783582901
 21
351.3447826901
 31
0.0
  0
LINE
  5
413
330
40C
100
AcDbEntity
  8
YELLOW
100
AcDbLine
 10
822.2783582901
 20
346.3447826901
 30
0.0
 11
807.0139352132
 21
346.3447826901
 31
0.0
  0
LINE
  5
414
330
40C
100
AcDbEntity
  8
YELLOW
100
AcDbLine
 10
822.2783582901
 20
346.3447826901
 30
0.0
 11
872.2783582901
 21
346.3447826901
 31
0.0
  0
LINE
  5
415
330
40C
100
AcDbEntity
  8
YELLOW
100
AcDbLine
 10
872.2783582901
 20
346.3447826901
 30
0.0
 11
887.542781367
 21
346.3447826901
 31
0.0
  0
MTEXT
  5
416
330
40C
100
AcDbEntity
  8
YELLOW
100
AcDbMText
 10
841.8359777241
 20
356.4836975415
 30
0.0
 40
7.9375
 41
0.0
 71
     1
 72
     1
  1
20
  7
SLDTEXTSTYLE0
 73
     1
 44
1.0
  0
ENDBLK
  5
40E
330
40C
100
AcDbEntity
  8
0
100
AcDbBlockEnd
  0
BLOCK
  5
419
330
418
100
AcDbEntity
  8
0
100
AcDbBlockBegin
  2
SW_CENTERMARKSYMBOL_10
 70
     0
 10
0.0
 20
0.0
 30
0.0
  3
SW_CENTERMARKSYMBOL_10
  1

  0
LINE
  5
41B
330
418
100
AcDbEntity
  8
0
  6
SLD-Solid
 62
     0
370
     0
100
AcDbLine
 10
0.0
 20
0.0
 30
0.0
 11
0.0
 21
6.2499940395
 31
0.0
  0
LINE
  5
41C
330
418
100
AcDbEntity
  8
0
  6
SLD-Solid
 62
     0
370
     0
100
AcDbLine
 10
0.0
 20
0.0
 30
0.0
 11
-6.2499940395
 21
0.0
 31
0.0
  0
LINE
  5
41D
330
418
100
AcDbEntity
  8
0
  6
SLD-Solid
 62
     0
370
     0
100
AcDbLine
 10
0.0
 20
0.0
 30
0.0
 11
0.0
 21
-6.2500033528
 31
0.0
  0
LINE
  5
41E
330
418
100
AcDbEntity
  8
0
  6
SLD-Solid
 62
     0
370
     0
100
AcDbLine
 10
0.0
 20
0.0
 30
0.0
 11
6.2499940395
 21
0.0
 31
0.0
  0
LINE
  5
41F
330
418
100
AcDbEntity
  8
0
  6
SLD-Solid
 62
     0
370
     0
100
AcDbLine
 10
0.0
 20
12.4999973923
 30
0.0
 11
0.0
 21
20.249998197
 31
0.0
  0
LINE
  5
420
330
418
100
AcDbEntity
  8
0
  6
SLD-Solid
 62
     0
370
     0
100
AcDbLine
 10
-12.4999880791
 20
0.0
 30
0.0
 11
-20.2500075102
 21
0.0
 31
0.0
  0
LINE
  5
421
330
418
100
AcDbEntity
  8
0
  6
SLD-Solid
 62
     0
370
     0
100
AcDbLine
 10
0.0
 20
-12.5000067055
 30
0.0
 11
0.0
 21
-20.2500028536
 31
0.0
  0
LINE
  5
422
330
418
100
AcDbEntity
  8
0
  6
SLD-Solid
 62
     0
370
     0
100
AcDbLine
 10
12.4999880791
 20
0.0
 30
0.0
 11
20.2500075102
 21
0.0
 31
0.0
  0
ENDBLK
  5
41A
330
418
100
AcDbEntity
  8
0
100
AcDbBlockEnd
  0
BLOCK
  5
425
330
424
100
AcDbEntity
  8
0
100
AcDbBlockBegin
  2
SW_CENTERMARKSYMBOL_11
 70
     0
 10
0.0
 20
0.0
 30
0.0
  3
SW_CENTERMARKSYMBOL_11
  1

  0
LINE
  5
427
330
424
100
AcDbEntity
  8
0
  6
SLD-Solid
 62
     0
370
     0
100
AcDbLine
 10
0.0
 20
0.0
 30
0.0
 11
-5.3267925978
 21
0.0
 31
0.0
  0
LINE
  5
428
330
424
100
AcDbEntity
  8
0
  6
SLD-Solid
 62
     0
370
     0
100
AcDbLine
 10
0.9232014418
 20
-5.312608555
 30
0.0
 11
0.9232014418
 21
-6.2500033528
 31
0.0
  0
LINE
  5
429
330
424
100
AcDbEntity
  8
0
  6
SLD-Solid
 62
     0
370
     0
100
AcDbLine
 10
-11.5767866373
 20
0.0
 30
0.0
 11
-13.3267790079
 21
0.0
 31
0.0
  0
LINE
  5
42A
330
424
100
AcDbEntity
  8
0
  6
SLD-Solid
 62
     0
370
     0
100
AcDbLine
 10
0.9232014418
 20
-12.5000067055
 30
0.0
 11
0.9232014418
 21
-14.2499990761
 31
0.0
  0
ENDBLK
  5
426
330
424
100
AcDbEntity
  8
0
100
AcDbBlockEnd
  0
ENDSEC
  0
SECTION
  2
ENTITIES
  0
LINE
  5
E8
330
1F
100
AcDbEntity
  8
0
  6
SLD-Center
 62
     7
100
AcDbLine
 10
960.212846957
 20
724.6285635667
 30
0.0
 11
177.9199537381
 21
724.6285635667
 31
0.0
  0
LINE
  5
E9
330
1F
100
AcDbEntity
  8
0
  6
SLD-Center
 62
     7
100
AcDbLine
 10
134.3199537381
 20
749.7962624977
 30
0.0
 11
114.6699537381
 21
749.7962624977
 31
0.0
  0
LINE
  5
EA
330
1F
100
AcDbEntity
  8
0
  6
SLD-Center
 62
     7
100
AcDbLine
 10
1023.900249813
 20
907.1942575035
 30
0.0
 11
1023.900249813
 21
764.9013642847
 31
0.0
  0
LINE
  5
EB
330
1F
100
AcDbEntity
  8
0
  6
SLD-Center
 62
     7
100
AcDbLine
 10
1023.462846957
 20
749.7962624977
 30
0.0
 11
1003.812846957
 21
749.7962624977
 31
0.0
  0
LINE
  5
EC
330
1F
100
AcDbEntity
  8
0
  6
SLD-Center
 62
     7
100
AcDbLine
 10
114.6699537381
 20
764.4639614286
 30
0.0
 11
162.0466964225
 21
764.4639614286
 31
0.0
  0
LINE
  5
ED
330
1F
100
AcDbEntity
  8
0
  6
SLD-Center
 62
     7
100
AcDbLine
 10
99.5648519511
 20
764.9013642847
 30
0.0
 11
99.5648519511
 21
892.1942575035
 31
0.0
  0
LINE
  5
EE
330
1F
100
AcDbEntity
  8
0
  6
SLD-Center
 62
     7
100
AcDbLine
 10
1038.567948744
 20
892.1942575035
 30
0.0
 11
1038.567948744
 21
764.9013642847
 31
0.0
  0
LINE
  5
EF
330
1F
100
AcDbEntity
  8
0
  6
SLD-Center
 62
     7
100
AcDbLine
 10
960.212846957
 20
737.7962624977
 30
0.0
 11
177.9199537381
 21
737.7962624977
 31
0.0
  0
LINE
  5
F0
330
1F
100
AcDbEntity
  8
0
  6
SLD-Center
 62
     7
100
AcDbLine
 10
114.6699537381
 20
925.7993592906
 30
0.0
 11
143.7860702617
 21
925.7993592906
 31
0.0
  0
LINE
  5
F1
330
1F
100
AcDbEntity
  8
0
  6
SLD-Center
 62
     7
100
AcDbLine
 10
975.7966964225
 20
764.4639614286
 30
0.0
 11
162.3361042726
 21
764.4639614286
 31
0.0
  0
LINE
  5
F2
330
1F
100
AcDbEntity
  8
0
  6
SLD-Center
 62
     7
100
AcDbLine
 10
1023.462846957
 20
764.4639614286
 30
0.0
 11
976.0861042726
 21
764.4639614286
 31
0.0
  0
LINE
  5
F3
330
1F
100
AcDbEntity
  8
0
  6
SLD-Center
 62
     7
100
AcDbLine
 10
180.5967304335
 20
925.7993592906
 30
0.0
 11
957.5360702617
 21
925.7993592906
 31
0.0
  0
LINE
  5
F4
330
1F
100
AcDbEntity
  8
0
  6
SLD-Center
 62
     7
100
AcDbLine
 10
994.3467304334
 20
925.7993592906
 30
0.0
 11
1023.462846957
 21
925.7993592906
 31
0.0
  0
LINE
  5
F5
330
1F
100
AcDbEntity
  8
0
  6
SLD-Center
 62
     7
100
AcDbLine
 10
114.2325508821
 20
764.9013642847
 30
0.0
 11
114.2325508821
 21
907.1942575035
 31
0.0
  0
LINE
  5
F6
330
1F
100
AcDbEntity
  8
0
  6
SLD-Center
 62
     7
100
AcDbLine
 10
976.0861042725
 20
907.6316603596
 30
0.0
 11
1023.462846957
 21
907.6316603596
 31
0.0
  0
LINE
  5
F7
330
1F
100
AcDbEntity
  8
0
  6
SLD-Center
 62
     7
100
AcDbLine
 10
162.3361042727
 20
907.6316603596
 30
0.0
 11
975.7966964225
 21
907.6316603596
 31
0.0
  0
LINE
  5
F8
330
1F
100
AcDbEntity
  8
0
  6
SLD-Center
 62
     7
100
AcDbLine
 10
114.6699537381
 20
907.6316603596
 30
0.0
 11
162.0466964225
 21
907.6316603596
 31
0.0
  0
LINE
  5
F9
330
1F
100
AcDbEntity
  8
0
  6
SLD-Center
 62
     7
100
AcDbLine
 10
975.9414003476
 20
765.5478108941
 30
0.0
 11
975.9414003476
 21
906.5478108941
 31
0.0
  0
LINE
  5
FA
330
1F
100
AcDbEntity
  8
0
  6
SLD-Center
 62
     7
100
AcDbLine
 10
162.1914003476
 20
765.5478108941
 30
0.0
 11
162.1914003476
 21
906.5478108941
 31
0.0
  0
LINE
  5
FB
330
1F
100
AcDbEntity
  8
0
  6
SLD-Solid
 62
     7
370
    15
100
AcDbLine
 10
130.3164003475
 20
919.7155098251
 30
0.0
 11
125.3164003475
 21
919.7155098251
 31
0.0
  0
ARC
  5
FC
330
1F
100
AcDbEntity
  8
0
  6
SLD-Solid
 62
     7
370
    15
100
AcDbCircle
 10
125.3164003475
 20
916.7155098251
 30
0.0
 40
3.0
100
AcDbArc
 50
90.0
 51
270.0
  0
LINE
  5
FD
330
1F
100
AcDbEntity
  8
0
  6
SLD-Solid
 62
     7
370
    15
100
AcDbLine
 10
125.3164003475
 20
913.7155098251
 30
0.0
 11
130.3164003475
 21
913.7155098251
 31
0.0
  0
ARC
  5
FE
330
1F
100
AcDbEntity
  8
0
  6
SLD-Solid
 62
     7
370
    15
100
AcDbCircle
 10
130.3164003475
 20
916.7155098251
 30
0.0
 40
3.0
100
AcDbArc
 50
270.0
 51
90.0
  0
CIRCLE
  5
FF
330
1F
100
AcDbEntity
  8
0
  6
SLD-Solid
 62
     7
370
    15
100
AcDbCircle
 10
105.6487014166
 20
804.5478108941
 30
0.0
 40
2.550000000000054
  0
CIRCLE
  5
100
330
1F
100
AcDbEntity
  8
0
  6
SLD-Solid
 62
     7
370
    15
100
AcDbCircle
 10
105.6487014166
 20
884.5478108941
 30
0.0
 40
2.550000000000054
  0
LINE
  5
101
330
1F
100
AcDbEntity
  8
0
  6
SLD-Solid
 62
     7
370
    15
100
AcDbLine
 10
1009.8164003476
 20
913.7155097262
 30
0.0
 11
1014.8164003476
 21
913.7155097262
 31
0.0
  0
ARC
  5
102
330
1F
100
AcDbEntity
  8
0
  6
SLD-Solid
 62
     7
370
    15
100
AcDbCircle
 10
1014.8164003476
 20
916.7155097262
 30
0.0
 40
3.0
100
AcDbArc
 50
270.0
 51
90.0
  0
LINE
  5
103
330
1F
100
AcDbEntity
  8
0
  6
SLD-Solid
 62
     7
370
    15
100
AcDbLine
 10
1014.8164003476
 20
919.7155097262
 30
0.0
 11
1009.8164003476
 21
919.7155097262
 31
0.0
  0
ARC
  5
104
330
1F
100
AcDbEntity
  8
0
  6
SLD-Solid
 62
     7
370
    15
100
AcDbCircle
 10
1009.8164003476
 20
916.7155097262
 30
0.0
 40
2.999999999999886
100
AcDbArc
 50
90.0
 51
270.0
  0
CIRCLE
  5
105
330
1F
100
AcDbEntity
  8
0
  6
SLD-Solid
 62
     7
370
    15
100
AcDbCircle
 10
1032.4840992785
 20
804.5478108941
 30
0.0
 40
2.549999999999955
  0
CIRCLE
  5
106
330
1F
100
AcDbEntity
  8
0
  6
SLD-Solid
 62
     7
370
    15
100
AcDbCircle
 10
1032.4840992785
 20
884.5478108941
 30
0.0
 40
2.549999999999955
  0
LINE
  5
107
330
1F
100
AcDbEntity
  8
0
  6
SLD-Solid
 62
     7
370
    15
100
AcDbLine
 10
566.5664003476
 20
911.7155098251
 30
0.0
 11
571.5664003476
 21
911.7155098251
 31
0.0
  0
ARC
  5
108
330
1F
100
AcDbEntity
  8
0
  6
SLD-Solid
 62
     7
370
    15
100
AcDbCircle
 10
571.5664003476
 20
914.7155098251
 30
0.0
 40
3.000000000000114
100
AcDbArc
 50
269.9999999995
 51
90.00000000049998
  0
LINE
  5
109
330
1F
100
AcDbEntity
  8
0
  6
SLD-Solid
 62
     7
370
    15
100
AcDbLine
 10
571.5664003476
 20
917.7155098251
 30
0.0
 11
566.5664003476
 21
917.7155098251
 31
0.0
  0
ARC
  5
10A
330
1F
100
AcDbEntity
  8
0
  6
SLD-Solid
 62
     7
370
    15
100
AcDbCircle
 10
566.5664003476
 20
914.7155098251
 30
0.0
 40
3.000000000000114
100
AcDbArc
 50
90.00000000049998
 51
269.9999999995
  0
LINE
  5
10B
330
1F
100
AcDbEntity
  8
0
  6
SLD-Solid
 62
     7
370
    15
100
AcDbLine
 10
196.0664002486
 20
911.7155098251
 30
0.0
 11
201.0664002486
 21
911.7155098251
 31
0.0
  0
ARC
  5
10C
330
1F
100
AcDbEntity
  8
0
  6
SLD-Solid
 62
     7
370
    15
100
AcDbCircle
 10
201.0664002486
 20
914.7155098251
 30
0.0
 40
3.000000000000114
100
AcDbArc
 50
270.0
 51
90.0
  0
LINE
  5
10D
330
1F
100
AcDbEntity
  8
0
  6
SLD-Solid
 62
     7
370
    15
100
AcDbLine
 10
201.0664002486
 20
917.7155098251
 30
0.0
 11
196.0664002486
 21
917.7155098251
 31
0.0
  0
ARC
  5
10E
330
1F
100
AcDbEntity
  8
0
  6
SLD-Solid
 62
     7
370
    15
100
AcDbCircle
 10
196.0664002486
 20
914.7155098251
 30
0.0
 40
3.000000000000114
100
AcDbArc
 50
90.0
 51
270.0
  0
LINE
  5
10F
330
1F
100
AcDbEntity
  8
0
  6
SLD-Solid
 62
     7
370
    15
100
AcDbLine
 10
937.0664004465
 20
911.7155098251
 30
0.0
 11
942.0664004465
 21
911.7155098251
 31
0.0
  0
ARC
  5
110
330
1F
100
AcDbEntity
  8
0
  6
SLD-Solid
 62
     7
370
    15
100
AcDbCircle
 10
942.0664004465
 20
914.7155098251
 30
0.0
 40
3.000000000000114
100
AcDbArc
 50
270.0
 51
90.0
  0
LINE
  5
111
330
1F
100
AcDbEntity
  8
0
  6
SLD-Solid
 62
     7
370
    15
100
AcDbLine
 10
942.0664004465
 20
917.7155098251
 30
0.0
 11
937.0664004465
 21
917.7155098251
 31
0.0
  0
ARC
  5
112
330
1F
100
AcDbEntity
  8
0
  6
SLD-Solid
 62
     7
370
    15
100
AcDbCircle
 10
937.0664004465
 20
914.7155098251
 30
0.0
 40
3.000000000000114
100
AcDbArc
 50
90.0
 51
270.0
  0
CIRCLE
  5
113
330
1F
100
AcDbEntity
  8
0
  6
SLD-Solid
 62
     7
370
    15
100
AcDbCircle
 10
229.0664003476
 20
715.0447141012
 30
0.0
 40
3.200000000004309
  0
CIRCLE
  5
114
330
1F
100
AcDbEntity
  8
0
  6
SLD-Solid
 62
     7
370
    15
100
AcDbCircle
 10
419.0664003476
 20
715.0447141012
 30
0.0
 40
3.200000000004309
  0
CIRCLE
  5
115
330
1F
100
AcDbEntity
  8
0
  6
SLD-Solid
 62
     7
370
    15
100
AcDbCircle
 10
189.0664003476
 20
715.0447141012
 30
0.0
 40
5.599999999995617
  0
CIRCLE
  5
116
330
1F
100
AcDbEntity
  8
0
  6
SLD-Solid
 62
     7
370
    15
100
AcDbCircle
 10
949.0664003476
 20
715.0447141012
 30
0.0
 40
5.600000000004115
  0
CIRCLE
  5
117
330
1F
100
AcDbEntity
  8
0
  6
SLD-Solid
 62
     7
370
    15
100
AcDbCircle
 10
719.0664003476
 20
715.0447141012
 30
0.0
 40
3.200000000004366
  0
CIRCLE
  5
118
330
1F
100
AcDbEntity
  8
0
  6
SLD-Solid
 62
     7
370
    15
100
AcDbCircle
 10
909.0664003476
 20
715.0447141012
 30
0.0
 40
3.200000000004366
  0
LINE
  5
119
330
1F
100
AcDbEntity
  8
0
  6
SLD-Solid
 62
     7
370
    15
100
AcDbLine
 10
181.7735071288
 20
926.8832087561
 30
0.0
 11
179.4199537381
 21
924.7155098251
 31
0.0
  0
LINE
  5
11A
330
1F
100
AcDbEntity
  8
0
  6
SLD-Solid
 62
     7
370
    15
100
AcDbLine
 10
181.7735071288
 20
926.8832087561
 30
0.0
 11
181.7735071288
 21
933.8832087561
 31
0.0
  0
LINE
  5
11B
330
1F
100
AcDbEntity
  8
0
  6
SLD-Solid
 62
     7
370
    15
100
AcDbLine
 10
181.7735071288
 20
933.8832087561
 30
0.0
 11
956.3592935663
 21
933.8832087561
 31
0.0
  0
LINE
  5
11C
330
1F
100
AcDbEntity
  8
0
  6
SLD-Solid
 62
     7
370
    15
100
AcDbLine
 10
956.3592935663
 20
926.8832087561
 30
0.0
 11
956.3592935663
 21
933.8832087561
 31
0.0
  0
LINE
  5
11D
330
1F
100
AcDbEntity
  8
0
  6
SLD-Solid
 62
     7
370
    15
100
AcDbLine
 10
958.712846957
 20
924.7155098251
 30
0.0
 11
956.3592935663
 21
926.8832087561
 31
0.0
  0
LINE
  5
11E
330
1F
100
AcDbEntity
  8
0
  6
SLD-Solid
 62
     7
370
    15
100
AcDbLine
 10
975.9414003475
 20
907.4869564346
 30
0.0
 11
958.712846957
 21
924.7155098251
 31
0.0
  0
LINE
  5
11F
330
1F
100
AcDbEntity
  8
0
  6
SLD-Solid
 62
     7
370
    15
100
AcDbLine
 10
993.169953738
 20
924.7155098251
 30
0.0
 11
975.9414003475
 21
907.4869564346
 31
0.0
  0
LINE
  5
120
330
1F
100
AcDbEntity
  8
0
  6
SLD-Solid
 62
     7
370
    15
100
AcDbLine
 10
995.5235071287
 20
926.8832087561
 30
0.0
 11
993.169953738
 21
924.7155098251
 31
0.0
  0
LINE
  5
121
330
1F
100
AcDbEntity
  8
0
  6
SLD-Solid
 62
     7
370
    15
100
AcDbLine
 10
995.5235071287
 20
926.8832087561
 30
0.0
 11
995.5235071287
 21
933.8832087561
 31
0.0
  0
LINE
  5
122
330
1F
100
AcDbEntity
  8
0
  6
SLD-Solid
 62
     7
370
    15
100
AcDbLine
 10
995.5235071287
 20
933.8832087561
 30
0.0
 11
1023.462846957
 21
933.8832087561
 31
0.0
  0
LINE
  5
123
330
1F
100
AcDbEntity
  8
0
  6
SLD-Solid
 62
     7
370
    15
100
AcDbLine
 10
1023.462846957
 20
933.8832087561
 30
0.0
 11
1023.462846957
 21
907.1942575035
 31
0.0
  0
LINE
  5
124
330
1F
100
AcDbEntity
  8
0
  6
SLD-Solid
 62
     7
370
    15
100
AcDbLine
 10
1023.462846957
 20
907.1942575035
 30
0.0
 11
1039.4840992785
 21
907.1942575035
 31
0.0
  0
LINE
  5
125
330
1F
100
AcDbEntity
  8
0
  6
SLD-Solid
 62
     7
370
    15
100
AcDbLine
 10
1039.4840992785
 20
907.1942575035
 30
0.0
 11
1039.4840992785
 21
892.6942575035
 31
0.0
  0
LINE
  5
126
330
1F
100
AcDbEntity
  8
0
  6
SLD-Solid
 62
     7
370
    15
100
AcDbLine
 10
1039.4840992785
 20
892.6942575035
 30
0.0
 11
1036.9840992785
 21
892.6942575035
 31
0.0
  0
LINE
  5
127
330
1F
100
AcDbEntity
  8
0
  6
SLD-Solid
 62
     7
370
    15
100
AcDbLine
 10
1036.9840992785
 20
892.6942575035
 30
0.0
 11
1036.9840992785
 21
892.1942575035
 31
0.0
  0
LINE
  5
128
330
1F
100
AcDbEntity
  8
0
  6
SLD-Solid
 62
     7
370
    15
100
AcDbLine
 10
1036.9840992785
 20
892.1942575035
 30
0.0
 11
1046.6517982095
 21
892.1942575035
 31
0.0
  0
LINE
  5
129
330
1F
100
AcDbEntity
  8
0
  6
SLD-Solid
 62
     7
370
    15
100
AcDbLine
 10
1046.6517982095
 20
892.1942575035
 30
0.0
 11
1046.6517982095
 21
764.9013642847
 31
0.0
  0
LINE
  5
12A
330
1F
100
AcDbEntity
  8
0
  6
SLD-Solid
 62
     7
370
    15
100
AcDbLine
 10
1046.6517982095
 20
764.9013642847
 30
0.0
 11
1023.462846957
 21
764.9013642847
 31
0.0
  0
LINE
  5
12B
330
1F
100
AcDbEntity
  8
0
  6
SLD-Solid
 62
     7
370
    15
100
AcDbLine
 10
1023.462846957
 20
764.9013642847
 30
0.0
 11
1023.462846957
 21
735.7124130322
 31
0.0
  0
LINE
  5
12C
330
1F
100
AcDbEntity
  8
0
  6
SLD-Solid
 62
     7
370
    15
100
AcDbLine
 10
1023.462846957
 20
735.7124130322
 30
0.0
 11
1003.812846957
 21
735.7124130322
 31
0.0
  0
LINE
  5
12D
330
1F
100
AcDbEntity
  8
0
  6
SLD-Solid
 62
     7
370
    15
100
AcDbLine
 10
1003.812846957
 20
735.7124130322
 30
0.0
 11
1003.812846957
 21
750.8801119631
 31
0.0
  0
LINE
  5
12E
330
1F
100
AcDbEntity
  8
0
  6
SLD-Solid
 62
     7
370
    15
100
AcDbLine
 10
1003.312846957
 20
750.8801119631
 30
0.0
 11
1003.812846957
 21
750.8801119631
 31
0.0
  0
LINE
  5
12F
330
1F
100
AcDbEntity
  8
0
  6
SLD-Solid
 62
     7
370
    15
100
AcDbLine
 10
1003.312846957
 20
748.8801119631
 30
0.0
 11
1003.312846957
 21
750.8801119631
 31
0.0
  0
LINE
  5
130
330
1F
100
AcDbEntity
  8
0
  6
SLD-Solid
 62
     7
370
    15
100
AcDbLine
 10
1003.312846957
 20
748.8801119631
 30
0.0
 11
991.6699537381
 21
748.8801119631
 31
0.0
  0
LINE
  5
131
330
1F
100
AcDbEntity
  8
0
  6
SLD-Solid
 62
     7
370
    15
100
AcDbLine
 10
975.9414003475
 20
764.6086653537
 30
0.0
 11
991.6699537381
 21
748.8801119631
 31
0.0
  0
LINE
  5
132
330
1F
100
AcDbEntity
  8
0
  6
SLD-Solid
 62
     7
370
    15
100
AcDbLine
 10
960.212846957
 20
748.8801119631
 30
0.0
 11
975.9414003475
 21
764.6086653537
 31
0.0
  0
LINE
  5
133
330
1F
100
AcDbEntity
  8
0
  6
SLD-Solid
 62
     7
370
    15
100
AcDbLine
 10
960.212846957
 20
748.8801119631
 30
0.0
 11
960.212846957
 21
706.5447141012
 31
0.0
  0
LINE
  5
134
330
1F
100
AcDbEntity
  8
0
  6
SLD-Solid
 62
     7
370
    15
100
AcDbLine
 10
960.212846957
 20
706.5447141012
 30
0.0
 11
177.9199537381
 21
706.5447141012
 31
0.0
  0
LINE
  5
135
330
1F
100
AcDbEntity
  8
0
  6
SLD-Solid
 62
     7
370
    15
100
AcDbLine
 10
177.9199537381
 20
706.5447141012
 30
0.0
 11
177.9199537381
 21
748.8801119631
 31
0.0
  0
LINE
  5
136
330
1F
100
AcDbEntity
  8
0
  6
SLD-Solid
 62
     7
370
    15
100
AcDbLine
 10
162.1914003476
 20
764.6086653537
 30
0.0
 11
177.9199537381
 21
748.8801119631
 31
0.0
  0
LINE
  5
137
330
1F
100
AcDbEntity
  8
0
  6
SLD-Solid
 62
     7
370
    15
100
AcDbLine
 10
146.4628469571
 20
748.8801119631
 30
0.0
 11
162.1914003476
 21
764.6086653537
 31
0.0
  0
LINE
  5
138
330
1F
100
AcDbEntity
  8
0
  6
SLD-Solid
 62
     7
370
    15
100
AcDbLine
 10
146.4628469571
 20
748.8801119631
 30
0.0
 11
134.8199537381
 21
748.8801119631
 31
0.0
  0
LINE
  5
139
330
1F
100
AcDbEntity
  8
0
  6
SLD-Solid
 62
     7
370
    15
100
AcDbLine
 10
134.8199537381
 20
750.8801119631
 30
0.0
 11
134.8199537381
 21
748.8801119631
 31
0.0
  0
LINE
  5
13A
330
1F
100
AcDbEntity
  8
0
  6
SLD-Solid
 62
     7
370
    15
100
AcDbLine
 10
134.3199537381
 20
750.8801119631
 30
0.0
 11
134.8199537381
 21
750.8801119631
 31
0.0
  0
LINE
  5
13B
330
1F
100
AcDbEntity
  8
0
  6
SLD-Solid
 62
     7
370
    15
100
AcDbLine
 10
134.3199537381
 20
750.8801119631
 30
0.0
 11
134.3199537381
 21
735.7124130322
 31
0.0
  0
LINE
  5
13C
330
1F
100
AcDbEntity
  8
0
  6
SLD-Solid
 62
     7
370
    15
100
AcDbLine
 10
134.3199537381
 20
735.7124130322
 30
0.0
 11
114.6699537381
 21
735.7124130322
 31
0.0
  0
LINE
  5
13D
330
1F
100
AcDbEntity
  8
0
  6
SLD-Solid
 62
     7
370
    15
100
AcDbLine
 10
114.6699537381
 20
735.7124130322
 30
0.0
 11
114.6699537381
 21
764.9013642847
 31
0.0
  0
LINE
  5
13E
330
1F
100
AcDbEntity
  8
0
  6
SLD-Solid
 62
     7
370
    15
100
AcDbLine
 10
114.6699537381
 20
764.9013642847
 30
0.0
 11
91.4810024856
 21
764.9013642847
 31
0.0
  0
LINE
  5
13F
330
1F
100
AcDbEntity
  8
0
  6
SLD-Solid
 62
     7
370
    15
100
AcDbLine
 10
91.4810024856
 20
764.9013642847
 30
0.0
 11
91.4810024856
 21
892.1942575035
 31
0.0
  0
LINE
  5
140
330
1F
100
AcDbEntity
  8
0
  6
SLD-Solid
 62
     7
370
    15
100
AcDbLine
 10
91.4810024856
 20
892.1942575035
 30
0.0
 11
101.1487014166
 21
892.1942575035
 31
0.0
  0
LINE
  5
141
330
1F
100
AcDbEntity
  8
0
  6
SLD-Solid
 62
     7
370
    15
100
AcDbLine
 10
101.1487014166
 20
892.1942575035
 30
0.0
 11
101.1487014166
 21
892.6942575035
 31
0.0
  0
LINE
  5
142
330
1F
100
AcDbEntity
  8
0
  6
SLD-Solid
 62
     7
370
    15
100
AcDbLine
 10
101.1487014166
 20
892.6942575035
 30
0.0
 11
98.6487014166
 21
892.6942575035
 31
0.0
  0
LINE
  5
143
330
1F
100
AcDbEntity
  8
0
  6
SLD-Solid
 62
     7
370
    15
100
AcDbLine
 10
98.6487014166
 20
892.6942575035
 30
0.0
 11
98.6487014166
 21
907.1942575035
 31
0.0
  0
LINE
  5
144
330
1F
100
AcDbEntity
  8
0
  6
SLD-Solid
 62
     7
370
    15
100
AcDbLine
 10
114.6699537381
 20
907.1942575035
 30
0.0
 11
98.6487014166
 21
907.1942575035
 31
0.0
  0
LINE
  5
145
330
1F
100
AcDbEntity
  8
0
  6
SLD-Solid
 62
     7
370
    15
100
AcDbLine
 10
114.6699537381
 20
907.1942575035
 30
0.0
 11
114.6699537381
 21
933.8832087561
 31
0.0
  0
LINE
  5
146
330
1F
100
AcDbEntity
  8
0
  6
SLD-Solid
 62
     7
370
    15
100
AcDbLine
 10
114.6699537381
 20
933.8832087561
 30
0.0
 11
142.6092935664
 21
933.8832087561
 31
0.0
  0
LINE
  5
147
330
1F
100
AcDbEntity
  8
0
  6
SLD-Solid
 62
     7
370
    15
100
AcDbLine
 10
142.6092935664
 20
926.8832087561
 30
0.0
 11
142.6092935664
 21
933.8832087561
 31
0.0
  0
LINE
  5
148
330
1F
100
AcDbEntity
  8
0
  6
SLD-Solid
 62
     7
370
    15
100
AcDbLine
 10
144.962846957
 20
924.7155098251
 30
0.0
 11
142.6092935664
 21
926.8832087561
 31
0.0
  0
LINE
  5
149
330
1F
100
AcDbEntity
  8
0
  6
SLD-Solid
 62
     7
370
    15
100
AcDbLine
 10
162.1914003476
 20
907.4869564345
 30
0.0
 11
144.962846957
 21
924.7155098251
 31
0.0
  0
LINE
  5
14A
330
1F
100
AcDbEntity
  8
0
  6
SLD-Solid
 62
     7
370
    15
100
AcDbLine
 10
179.4199537381
 20
924.7155098251
 30
0.0
 11
162.1914003476
 21
907.4869564345
 31
0.0
  0
POINT
  5
14B
330
1F
100
AcDbEntity
  8
YELLOW
370
     0
100
AcDbPoint
 10
105.6487014166
 20
804.5478108941
 30
0.0
  0
POINT
  5
14C
330
1F
100
AcDbEntity
  8
YELLOW
370
     0
100
AcDbPoint
 10
105.6487014166
 20
884.5478108941
 30
0.0
  0
POINT
  5
14D
330
1F
100
AcDbEntity
  8
YELLOW
370
     0
100
AcDbPoint
 10
127.8164003475
 20
916.7155098251
 30
0.0
  0
POINT
  5
14E
330
1F
100
AcDbEntity
  8
YELLOW
370
     0
100
AcDbPoint
 10
189.0664003476
 20
715.0447141012
 30
0.0
  0
POINT
  5
14F
330
1F
100
AcDbEntity
  8
YELLOW
370
     0
100
AcDbPoint
 10
198.5664002486
 20
914.7155098251
 30
0.0
  0
POINT
  5
150
330
1F
100
AcDbEntity
  8
YELLOW
370
     0
100
AcDbPoint
 10
229.0664003476
 20
715.0447141012
 30
0.0
  0
POINT
  5
151
330
1F
100
AcDbEntity
  8
YELLOW
370
     0
100
AcDbPoint
 10
419.0664003476
 20
715.0447141012
 30
0.0
  0
POINT
  5
152
330
1F
100
AcDbEntity
  8
YELLOW
370
     0
100
AcDbPoint
 10
569.0664003476
 20
914.7155098251
 30
0.0
  0
POINT
  5
153
330
1F
100
AcDbEntity
  8
YELLOW
370
     0
100
AcDbPoint
 10
719.0664003476
 20
715.0447141012
 30
0.0
  0
POINT
  5
154
330
1F
100
AcDbEntity
  8
YELLOW
370
     0
100
AcDbPoint
 10
909.0664003476
 20
715.0447141012
 30
0.0
  0
POINT
  5
155
330
1F
100
AcDbEntity
  8
YELLOW
370
     0
100
AcDbPoint
 10
939.5664004465
 20
914.7155098251
 30
0.0
  0
POINT
  5
156
330
1F
100
AcDbEntity
  8
YELLOW
370
     0
100
AcDbPoint
 10
949.0664003476
 20
715.0447141012
 30
0.0
  0
POINT
  5
157
330
1F
100
AcDbEntity
  8
YELLOW
370
     0
100
AcDbPoint
 10
1012.3164003476
 20
916.7155097262
 30
0.0
  0
POINT
  5
158
330
1F
100
AcDbEntity
  8
YELLOW
370
     0
100
AcDbPoint
 10
1032.4840992785
 20
804.5478108941
 30
0.0
  0
POINT
  5
159
330
1F
100
AcDbEntity
  8
YELLOW
370
     0
100
AcDbPoint
 10
1032.4840992785
 20
884.5478108941
 30
0.0
  0
DIMENSION
  5
15A
330
1F
100
AcDbEntity
  8
BLUE
100
AcDbDimension
  2
_D
 10
986.8243003344
 20
706.5447141012
 30
0.0
 11
986.8243003344
 21
673.6557682728
 31
0.0
 70
   160
  1
<>
 71
     2
 42
-1.0
  3
SLDDIMSTYLE0
100
AcDbAlignedDimension
 13
960.212846957
 23
724.6285635667
 33
0.0
 14
960.212846957
 24
706.5447141012
 34
0.0
 50
90.0
100
AcDbRotatedDimension
  0
DIMENSION
  5
167
330
1F
100
AcDbEntity
  8
BLUE
100
AcDbDimension
  2
_D_1
 10
1021.6747087498
 20
724.6285635667
 30
0.0
 11
1021.6747087498
 21
673.6557682728
 31
0.0
 70
   160
  1
<>
 71
     2
 42
-1.0
  3
SLDDIMSTYLE1
100
AcDbAlignedDimension
 13
960.212846957
 23
737.7962624977
 33
0.0
 14
960.212846957
 24
724.6285635667
 34
0.0
 50
90.0
100
AcDbRotatedDimension
  0
DIMENSION
  5
174
330
1F
100
AcDbEntity
  8
BLUE
100
AcDbDimension
  2
_D_2
 10
1086.6517982095
 20
737.7962624977
 30
0.0
 11
1086.6517982095
 21
704.3570319487
 31
0.0
 70
   160
  1
<>
 71
     2
 42
-1.0
  3
SLDDIMSTYLE0
100
AcDbAlignedDimension
 13
975.7966964225
 23
764.4639614286
 33
0.0
 14
960.212846957
 24
737.7962624977
 34
0.0
 50
90.0
100
AcDbRotatedDimension
  0
DIMENSION
  5
17F
330
1F
100
AcDbEntity
  8
BLUE
100
AcDbDimension
  2
_D_3
 10
1046.6517982095
 20
822.3173258033
 30
0.0
 11
1100.3050936343
 21
822.3173258033
 31
0.0
 70
   160
  1
<>
 71
     2
 42
-1.0
  3
SLDDIMSTYLE1
100
AcDbAlignedDimension
 13
1038.567948744
 23
764.9013642847
 33
0.0
 14
1046.6517982095
 24
764.9013642847
 34
0.0
100
AcDbRotatedDimension
  0
DIMENSION
  5
189
330
1F
100
AcDbEntity
  8
BLUE
100
AcDbDimension
  2
_D_4
 10
1038.567948744
 20
862.2932446063
 30
0.0
 11
1100.3050936343
 21
862.2932446063
 31
0.0
 70
   160
  1
<>
 71
     2
 42
-1.0
  3
SLDDIMSTYLE1
100
AcDbAlignedDimension
 13
1023.900249813
 23
907.1942575035
 33
0.0
 14
1038.567948744
 24
892.1942575035
 34
0.0
100
AcDbRotatedDimension
  0
DIMENSION
  5
193
330
1F
100
AcDbEntity
  8
BLUE
100
AcDbDimension
  2
_D_5
 10
1023.900249813
 20
884.430990818
 30
0.0
 11
1099.1698245978
 21
884.430990818
 31
0.0
 70
   160
  1
<>
 71
     2
 42
-1.0
  3
SLDDIMSTYLE0
100
AcDbAlignedDimension
 13
975.9414003476
 23
906.5478108941
 33
0.0
 14
1023.900249813
 24
907.1942575035
 34
0.0
100
AcDbRotatedDimension
  0
DIMENSION
  5
19C
330
1F
100
AcDbEntity
  8
BLUE
100
AcDbDimension
  2
_D_6
 10
1120.7686377327
 20
925.7993592906
 30
0.0
 11
1120.7686377327
 21
955.1644019756
 31
0.0
 70
   160
  1
<>
 71
     2
 42
-1.0
  3
SLDDIMSTYLE0
100
AcDbAlignedDimension
 13
1023.462846957
 23
907.6316603596
 33
0.0
 14
1023.462846957
 24
925.7993592906
 34
0.0
 50
90.0
100
AcDbRotatedDimension
  0
DIMENSION
  5
1A8
330
1F
100
AcDbEntity
  8
BLUE
100
AcDbDimension
  2
_D_7
 10
1086.6517982095
 20
925.7993592906
 30
0.0
 11
1086.6517982095
 21
958.7718219583
 31
0.0
 70
   160
  1
<>
 71
     2
 42
-1.0
  3
SLDDIMSTYLE1
100
AcDbAlignedDimension
 13
1023.462846957
 23
933.8832087561
 33
0.0
 14
1023.462846957
 24
925.7993592906
 34
0.0
 50
90.0
100
AcDbRotatedDimension
  0
DIMENSION
  5
1B4
330
1F
100
AcDbEntity
  8
BLUE
100
AcDbDimension
  2
_D_8
 10
102.5739610326
 20
735.7124130322
 30
0.0
 11
102.5739610326
 21
713.9219534102
 31
0.0
 70
   160
  1
<>
 71
     2
 42
-1.0
  3
SLDDIMSTYLE1
100
AcDbAlignedDimension
 13
114.6699537381
 23
749.7962624977
 33
0.0
 14
114.6699537381
 24
735.7124130322
 34
0.0
 50
90.0
100
AcDbRotatedDimension
  0
DIMENSION
  5
1C0
330
1F
100
AcDbEntity
  8
YELLOW
100
AcDbDimension
  2
_D_9
 10
1046.6517982095
 20
958.8832087561
 30
0.0
 11
569.0664003476
 21
958.8832087561
 31
0.0
 70
   160
  1
<>
 71
     2
 42
-1.0
  3
SLDDIMSTYLE0
100
AcDbAlignedDimension
 13
91.4810024856
 23
892.1942575035
 33
0.0
 14
1046.6517982095
 24
892.1942575035
 34
0.0
100
AcDbRotatedDimension
  0
DIMENSION
  5
1CA
330
1F
100
AcDbEntity
  8
YELLOW
100
AcDbDimension
  2
_D_10
 10
51.4810024856
 20
706.5447141012
 30
0.0
 11
51.4810024856
 21
820.2139614286
 31
0.0
 70
   160
  1
<>
 71
     2
 42
-1.0
  3
SLDDIMSTYLE0
100
AcDbAlignedDimension
 13
181.7735071288
 23
933.8832087561
 33
0.0
 14
177.9199537381
 24
706.5447141012
 34
0.0
 50
90.0
100
AcDbRotatedDimension
  0
MTEXT
  5
1D4
330
1F
100
AcDbEntity
  8
BLACK
 62
     6
100
AcDbMText
 10
601.4471315533
 20
756.5648775827
 30
0.0
 40
7.9375
 41
0.0
 71
     1
 72
     1
  1
{W górę 90.00%%d  R 1 }
  7
SLDTEXTSTYLE0
 73
     1
 44
1.0
  0
LEADER
  5
1D6
330
1F
100
AcDbEntity
  8
BLACK
 62
     6
100
AcDbLeader
  3
SLDDIMSTYLE2
 76
     2
 10
569.0664003476
 20
724.6285635667
 30
0.0
 10
598.903678606
 20
751.4520813166
 30
0.0
  0
MTEXT
  5
1D7
330
1F
100
AcDbEntity
  8
BLACK
 62
     6
100
AcDbMText
 10
156.8756849439
 20
781.7325765136
 30
0.0
 40
7.9375
 41
0.0
 71
     1
 72
     1
  1
{W dół  90.00%%d  R 1 }
  7
SLDTEXTSTYLE0
 73
     1
 44
1.0
  0
LEADER
  5
1D8
330
1F
100
AcDbEntity
  8
BLACK
 62
     6
100
AcDbLeader
  3
SLDDIMSTYLE2
 76
     2
 10
124.4949537381
 20
749.7962624977
 30
0.0
 10
154.082768635
 20
776.6214908035
 30
0.0
  0
MTEXT
  5
1D9
330
1F
100
AcDbEntity
  8
BLACK
 62
     6
100
AcDbMText
 10
1046.0185781627
 20
781.7325765136
 30
0.0
 40
7.9375
 41
0.0
 71
     1
 72
     1
  1
{W dół\fCentury Gothic|b0|i0|c1|p34;\C6;\T1;\Q0;\W0.913;\A0;  90.00%%d  R 1 }
  7
SLDTEXTSTYLE0
 73
     1
 44
1.0
  0
LEADER
  5
1DA
330
1F
100
AcDbEntity
  8
BLACK
 62
     6
100
AcDbLeader
  3
SLDDIMSTYLE2
 76
     2
 10
1013.637846957
 20
749.7962624977
 30
0.0
 10
1043.2405614714
 20
776.6214908035
 30
0.0
  0
MTEXT
  5
1DB
330
1F
100
AcDbEntity
  8
BLACK
 62
     6
100
AcDbMText
 10
170.7390562861
 20
796.4002754446
 30
0.0
 40
7.9375
 41
0.0
 71
     1
 72
     1
  1
{W dół  90.00%%d  R 1 }
  7
SLDTEXTSTYLE0
 73
     1
 44
1.0
  0
LEADER
  5
1DC
330
1F
100
AcDbEntity
  8
BLACK
 62
     6
100
AcDbLeader
  3
SLDDIMSTYLE2
 76
     2
 10
138.3583250803
 20
764.4639614286
 30
0.0
 10
168.1195546951
 20
791.3843175218
 30
0.0
  0
MTEXT
  5
1DD
330
1F
100
AcDbEntity
  8
BLACK
 62
     6
100
AcDbMText
 10
132.3900003467
 20
860.9285420999
 30
0.0
 40
7.9375
 41
0.0
 71
     1
 72
     1
  1
{W górę\fCentury Gothic|b0|i0|c1|p34;\C6;\T1;\Q0;\W0.913;\A0;  90.00%%d  R 1 }
  7
SLDTEXTSTYLE0
 11
-3.491481338843133E-15
 21
1.0
 31
0.0
 73
     1
 44
1.0
  0
LEADER
  5
1DE
330
1F
100
AcDbEntity
  8
BLACK
 62
     6
100
AcDbLeader
  3
SLDDIMSTYLE2
 76
     2
 10
99.5648519511
 20
828.5478108941
 30
0.0
 10
140.045982575
 20
860.6001936108
 30
0.0
  0
MTEXT
  5
1DF
330
1F
100
AcDbEntity
  8
BLACK
 62
     6
100
AcDbMText
 10
161.6087432057
 20
957.7356733066
 30
0.0
 40
7.9375
 41
0.0
 71
     1
 72
     1
  1
{W górę\fCentury Gothic|b0|i0|c1|p34;\C6;\T1;\Q0;\W0.913;\A0;  90.00%%d  R 1 }
  7
SLDTEXTSTYLE0
 73
     1
 44
1.0
  0
LEADER
  5
1E0
330
1F
100
AcDbEntity
  8
BLACK
100
AcDbLeader
  3
SLDDIMSTYLE2
 76
     2
 10
129.2280119999
 20
925.7993592906
 30
0.0
 10
158.9230396902
 20
952.5653436592
 30
0.0
  0
MTEXT
  5
1E1
330
1F
100
AcDbEntity
  8
BLACK
 62
     6
100
AcDbMText
 10
601.4471315533
 20
957.7356733066
 30
0.0
 40
7.9375
 41
0.0
 71
     1
 72
     1
  1
{W górę\fCentury Gothic|b0|i0|c1|p34;\C6;\T1;\Q0;\W0.913;\A0;  90.00%%d  R 1 }
  7
SLDTEXTSTYLE0
 73
     1
 44
1.0
  0
LEADER
  5
1E2
330
1F
100
AcDbEntity
  8
BLACK
 62
     6
100
AcDbLeader
  3
SLDDIMSTYLE2
 76
     2
 10
569.0664003476
 20
925.7993592906
 30
0.0
 10
598.903678606
 20
952.5653436592
 30
0.0
  0
MTEXT
  5
1E3
330
1F
100
AcDbEntity
  8
BLACK
 62
     6
100
AcDbMText
 10
147.0576992777
 20
868.4285420999
 30
0.0
 40
7.9375
 41
0.0
 71
     1
 72
     1
  1
{W dół  90.00%%d  R 1 }
  7
SLDTEXTSTYLE0
 11
-3.491481338843133E-15
 21
1.0
 31
0.0
 73
     1
 44
1.0
  0
LEADER
  5
1E4
330
1F
100
AcDbEntity
  8
BLACK
 62
     6
100
AcDbLeader
  3
SLDDIMSTYLE2
 76
     2
 10
114.2325508821
 20
836.0478108941
 30
0.0
 10
154.5667957406
 20
868.3446272991
 30
0.0
  0
MTEXT
  5
1E5
330
1F
100
AcDbEntity
  8
BLACK
 62
     6
100
AcDbMText
 10
601.4471315533
 20
769.7325765136
 30
0.0
 40
7.9375
 41
0.0
 71
     1
 72
     1
  1
{W dół\fCentury Gothic|b0|i0|c1|p34;\C6;\T1;\Q0;\W0.913;\A0;  90.00%%d  R 1 }
  7
SLDTEXTSTYLE0
 73
     1
 44
1.0
  0
LEADER
  5
1E6
330
1F
100
AcDbEntity
  8
BLACK
 62
     6
100
AcDbLeader
  3
SLDDIMSTYLE2
 76
     2
 10
569.0664003476
 20
737.7962624977
 30
0.0
 10
598.903678606
 20
764.7628267183
 30
0.0
  0
MTEXT
  5
1E7
330
1F
100
AcDbEntity
  8
BLACK
 62
     6
100
AcDbMText
 10
601.4471315533
 20
796.4002754446
 30
0.0
 40
7.9375
 41
0.0
 71
     1
 72
     1
  1
{W dół\fCentury Gothic|b0|i0|c1|p34;\C6;\T1;\Q0;\W0.913;\A0;  90.00%%d  R 1 }
  7
SLDTEXTSTYLE0
 73
     1
 44
1.0
  0
LEADER
  5
1E8
330
1F
100
AcDbEntity
  8
BLACK
 62
     6
100
AcDbLeader
  3
SLDDIMSTYLE2
 76
     2
 10
569.0664003476
 20
764.4639614286
 30
0.0
 10
598.903678606
 20
791.3843175218
 30
0.0
  0
MTEXT
  5
1E9
330
1F
100
AcDbEntity
  8
BLACK
 62
     6
100
AcDbMText
 10
1032.1552068205
 20
796.4002754446
 30
0.0
 40
7.9375
 41
0.0
 71
     1
 72
     1
  1
{W dół\fCentury Gothic|b0|i0|c1|p34;\C6;\T1;\Q0;\W0.913;\A0;  90.00%%d  R 1 }
  7
SLDTEXTSTYLE0
 73
     1
 44
1.0
  0
LEADER
  5
1EA
330
1F
100
AcDbEntity
  8
BLACK
 62
     6
100
AcDbLeader
  3
SLDDIMSTYLE2
 76
     2
 10
999.7744756148
 20
764.4639614286
 30
0.0
 10
1029.2037754114
 20
791.3843175218
 30
0.0
  0
MTEXT
  5
1EB
330
1F
100
AcDbEntity
  8
BLACK
 62
     6
100
AcDbMText
 10
601.4471315534
 20
939.5679743756
 30
0.0
 40
7.9375
 41
0.0
 71
     1
 72
     1
  1
{W dól  90.00%%d  R 1 }
  7
SLDTEXTSTYLE0
 73
     1
 44
1.0
  0
LEADER
  5
1EC
330
1F
100
AcDbEntity
  8
BLACK
 62
     6
100
AcDbLeader
  3
SLDDIMSTYLE2
 76
     2
 10
569.0664003476
 20
907.6316603596
 30
0.0
 10
598.903678606
 20
934.6563407551
 30
0.0
  0
MTEXT
  5
1ED
330
1F
100
AcDbEntity
  8
BLACK
 62
     6
100
AcDbMText
 10
170.7390562861
 20
939.5679743756
 30
0.0
 40
7.9375
 41
0.0
 71
     1
 72
     1
  1
{W dół  90.00%%d  R 1 }
  7
SLDTEXTSTYLE0
 73
     1
 44
1.0
  0
LEADER
  5
1EE
330
1F
100
AcDbEntity
  8
BLACK
100
AcDbLeader
  3
SLDDIMSTYLE2
 76
     2
 10
138.3583250803
 20
907.6316603596
 30
0.0
 10
168.1195546951
 20
934.6563407551
 30
0.0
  0
MTEXT
  5
1EF
330
1F
100
AcDbEntity
  8
BLACK
 62
     6
100
AcDbMText
 10
195.0165487431
 20
868.4285420999
 30
0.0
 40
7.9375
 41
0.0
 71
     1
 72
     1
  1
{W dół\fCentury Gothic|b0|i0|c1|p34;\C6;\T1;\Q0;\W0.913;\A0;  90.00%%d  R 1 }
  7
SLDTEXTSTYLE0
 11
-3.491481338843133E-15
 21
1.0
 31
0.0
 73
     1
 44
1.0
  0
LEADER
  5
1F0
330
1F
100
AcDbEntity
  8
BLACK
 62
     6
100
AcDbLeader
  3
SLDDIMSTYLE2
 76
     2
 10
162.1914003476
 20
836.0478108941
 30
0.0
 10
202.4854791868
 20
868.3446272991
 30
0.0
  0
MTEXT
  5
1F1
330
1F
100
AcDbEntity
  8
YELLOW
100
AcDbMText
 10
110.2802508334
 20
808.7349431211
 30
0.0
 40
7.9375
 41
0.0
 71
     1
 72
     1
  1
A1
  7
SLDTEXTSTYLE0
 73
     1
 44
1.0
  0
MTEXT
  5
1F2
330
1F
100
AcDbEntity
  8
YELLOW
100
AcDbMText
 10
110.2802508334
 20
888.7349431211
 30
0.0
 40
7.9375
 41
0.0
 71
     1
 72
     1
  1
A2
  7
SLDTEXTSTYLE0
 73
     1
 44
1.0
  0
MTEXT
  5
1F3
330
1F
100
AcDbEntity
  8
YELLOW
100
AcDbMText
 10
134.5140960705
 20
922.1715715142
 30
0.0
 40
7.9375
 41
0.0
 71
     1
 72
     1
  1
B1
  7
SLDTEXTSTYLE0
 73
     1
 44
1.0
  0
MTEXT
  5
1F4
330
1F
100
AcDbEntity
  8
YELLOW
100
AcDbMText
 10
195.854625447
 20
721.3885220108
 30
0.0
 40
7.9375
 41
0.0
 71
     1
 72
     1
  1
C1
  7
SLDTEXTSTYLE0
 73
     1
 44
1.0
  0
MTEXT
  5
1F5
330
1F
100
AcDbEntity
  8
YELLOW
100
AcDbMText
 10
205.2640959717
 20
920.1715715142
 30
0.0
 40
7.9375
 41
0.0
 71
     1
 72
     1
  1
D1
  7
SLDTEXTSTYLE0
 73
     1
 44
1.0
  0
MTEXT
  5
1F6
330
1F
100
AcDbEntity
  8
YELLOW
100
AcDbMText
 10
234.1575691721
 20
719.6914657359
 30
0.0
 40
7.9375
 41
0.0
 71
     1
 72
     1
  1
E1
  7
SLDTEXTSTYLE0
 73
     1
 44
1.0
  0
MTEXT
  5
1F7
330
1F
100
AcDbEntity
  8
YELLOW
100
AcDbMText
 10
424.1575691721
 20
719.6914657359
 30
0.0
 40
7.9375
 41
0.0
 71
     1
 72
     1
  1
E2
  7
SLDTEXTSTYLE0
 73
     1
 44
1.0
  0
MTEXT
  5
1F8
330
1F
100
AcDbEntity
  8
YELLOW
100
AcDbMText
 10
575.7640960706
 20
920.1715715142
 30
0.0
 40
7.9375
 41
0.0
 71
     1
 72
     1
  1
F1
  7
SLDTEXTSTYLE0
 73
     1
 44
1.0
  0
MTEXT
  5
1F9
330
1F
100
AcDbEntity
  8
YELLOW
100
AcDbMText
 10
724.1575691721
 20
719.6914657359
 30
0.0
 40
7.9375
 41
0.0
 71
     1
 72
     1
  1
E3
  7
SLDTEXTSTYLE0
 73
     1
 44
1.0
  0
MTEXT
  5
1FA
330
1F
100
AcDbEntity
  8
YELLOW
100
AcDbMText
 10
914.1575691721
 20
719.6914657359
 30
0.0
 40
7.9375
 41
0.0
 71
     1
 72
     1
  1
E4
  7
SLDTEXTSTYLE0
 73
     1
 44
1.0
  0
MTEXT
  5
1FB
330
1F
100
AcDbEntity
  8
YELLOW
100
AcDbMText
 10
946.2640961695
 20
920.1715715142
 30
0.0
 40
7.9375
 41
0.0
 71
     1
 72
     1
  1
G1
  7
SLDTEXTSTYLE0
 73
     1
 44
1.0
  0
MTEXT
  5
1FC
330
1F
100
AcDbEntity
  8
YELLOW
100
AcDbMText
 10
955.854625447
 20
721.3885220108
 30
0.0
 40
7.9375
 41
0.0
 71
     1
 72
     1
  1
C2
  7
SLDTEXTSTYLE0
 73
     1
 44
1.0
  0
MTEXT
  5
1FD
330
1F
100
AcDbEntity
  8
YELLOW
100
AcDbMText
 10
1019.0140960706
 20
922.1715714152
 30
0.0
 40
7.9375
 41
0.0
 71
     1
 72
     1
  1
H1
  7
SLDTEXTSTYLE0
 73
     1
 44
1.0
  0
MTEXT
  5
1FE
330
1F
100
AcDbEntity
  8
YELLOW
100
AcDbMText
 10
1037.1156486953
 20
808.7349431211
 30
0.0
 40
7.9375
 41
0.0
 71
     1
 72
     1
  1
A3
  7
SLDTEXTSTYLE0
 73
     1
 44
1.0
  0
MTEXT
  5
1FF
330
1F
100
AcDbEntity
  8
YELLOW
100
AcDbMText
 10
1037.1156486953
 20
888.7349431211
 30
0.0
 40
7.9375
 41
0.0
 71
     1
 72
     1
  1
A4
  7
SLDTEXTSTYLE0
 73
     1
 44
1.0
  0
INSERT
  5
20B
330
1F
100
AcDbEntity
  8
0
  6
Continuous
 62
     7
370
     0
100
AcDbBlockReference
  2
SW_CENTERMARKSYMBOL_0
 10
229.0664003476
 20
715.0447141012
 30
0.0
  0
INSERT
  5
217
330
1F
100
AcDbEntity
  8
0
  6
Continuous
 62
     7
370
     0
100
AcDbBlockReference
  2
SW_CENTERMARKSYMBOL_1
 10
419.0664003476
 20
715.0447141012
 30
0.0
  0
INSERT
  5
223
330
1F
100
AcDbEntity
  8
0
  6
Continuous
 62
     7
370
     0
100
AcDbBlockReference
  2
SW_CENTERMARKSYMBOL_2
 10
189.0664003476
 20
715.0447141012
 30
0.0
  0
INSERT
  5
22F
330
1F
100
AcDbEntity
  8
0
  6
Continuous
 62
     7
370
     0
100
AcDbBlockReference
  2
SW_CENTERMARKSYMBOL_3
 10
949.0664003476
 20
715.0447141012
 30
0.0
  0
INSERT
  5
23B
330
1F
100
AcDbEntity
  8
0
  6
Continuous
 62
     7
370
     0
100
AcDbBlockReference
  2
SW_CENTERMARKSYMBOL_4
 10
719.0664003476
 20
715.0447141012
 30
0.0
  0
INSERT
  5
247
330
1F
100
AcDbEntity
  8
0
  6
Continuous
 62
     7
370
     0
100
AcDbBlockReference
  2
SW_CENTERMARKSYMBOL_5
 10
909.0664003476
 20
715.0447141012
 30
0.0
  0
INSERT
  5
253
330
1F
100
AcDbEntity
  8
0
  6
Continuous
 62
     7
370
     0
100
AcDbBlockReference
  2
SW_CENTERMARKSYMBOL_6
 10
1032.4840992785
 20
804.5478108941
 30
0.0
  0
INSERT
  5
25F
330
1F
100
AcDbEntity
  8
0
  6
Continuous
 62
     7
370
     0
100
AcDbBlockReference
  2
SW_CENTERMARKSYMBOL_7
 10
1032.4840992785
 20
884.5478108941
 30
0.0
  0
INSERT
  5
26B
330
1F
100
AcDbEntity
  8
0
  6
Continuous
 62
     7
370
     0
100
AcDbBlockReference
  2
SW_CENTERMARKSYMBOL_8
 10
105.6487014166
 20
804.5478108941
 30
0.0
  0
INSERT
  5
277
330
1F
100
AcDbEntity
  8
0
  6
Continuous
 62
     7
370
     0
100
AcDbBlockReference
  2
SW_CENTERMARKSYMBOL_9
 10
105.6487014166
 20
884.5478108941
 30
0.0
  0
INSERT
  5
285
330
1F
100
AcDbEntity
  8
YELLOW
100
AcDbBlockReference
  2
SW_DATUMORIGIN_0
 10
91.4810024856
 20
701.5447141012
 30
0.0
  0
ENDSEC
  0
SECTION
  2
OBJECTS
  0
DICTIONARY
  5
C
330
0
100
AcDbDictionary
281
     1
  3
ACAD_GROUP
350
D
  3
ACAD_IMAGE_VARS
350
452
  3
ACAD_LAYOUT
350
1A
  3
ACAD_MLINESTYLE
350
17
  3
ACAD_PLOTSETTINGS
350
19
  3
ACAD_PLOTSTYLENAME
350
E
  3
ACAD_SCALELIST
350
42E
  3
AcDbVariableDictionary
350
454
  3
APPDATA
350
451
  0
DICTIONARY
  5
D
102
{ACAD_REACTORS
330
C
102
}
330
C
100
AcDbDictionary
281
     1
  0
RASTERVARIABLES
  5
452
102
{ACAD_REACTORS
330
C
102
}
330
C
100
AcDbRasterVariables
 90
        0
 70
     1
 71
     1
 72
     1
  0
DICTIONARY
  5
1A
102
{ACAD_REACTORS
330
C
102
}
330
C
100
AcDbDictionary
281
     1
  3
Layout1
350
1E
  3
Layout2
350
26
  3
Model
350
22
  0
DICTIONARY
  5
17
102
{ACAD_REACTORS
330
C
102
}
330
C
100
AcDbDictionary
281
     1
  3
Standard
350
18
  0
DICTIONARY
  5
19
102
{ACAD_REACTORS
330
C
102
}
330
C
100
AcDbDictionary
281
     1
  0
ACDBDICTIONARYWDFLT
  5
E
102
{ACAD_REACTORS
330
C
102
}
330
C
100
AcDbDictionary
281
     1
  3
Normal
350
F
100
AcDbDictionaryWithDefault
340
F
  0
DICTIONARY
  5
42E
102
{ACAD_REACTORS
330
C
102
}
330
C
100
AcDbDictionary
281
     1
  3
A0
350
42F
  3
A1
350
430
  3
A2
350
431
  3
A3
350
432
  3
A4
350
433
  3
A5
350
434
  3
A6
350
435
  3
A7
350
436
  3
A8
350
437
  3
A9
350
438
  3
B0
350
439
  3
B1
350
43A
  3
B2
350
43B
  3
B3
350
43C
  3
B4
350
43D
  3
B5
350
43E
  3
B6
350
43F
  3
B7
350
440
  3
B8
350
441
  3
B9
350
442
  3
C0
350
443
  3
C1
350
444
  3
C2
350
445
  3
C3
350
446
  3
C4
350
447
  3
C5
350
448
  3
C6
350
449
  3
C7
350
44A
  3
C8
350
44B
  3
C9
350
44C
  3
D0
350
44D
  3
D1
350
44E
  3
D2
350
44F
  0
DICTIONARY
  5
454
102
{ACAD_REACTORS
330
C
102
}
330
C
100
AcDbDictionary
281
     1
  3
CANNOSCALE
350
45B
  0
DICTIONARY
  5
451
102
{ACAD_REACTORS
330
C
102
}
330
C
100
AcDbDictionary
281
     1
  0
LAYOUT
  5
1E
102
{ACAD_REACTORS
330
1A
102
}
330
1A
100
AcDbPlotSettings
  1

  2
none_device
  4

  6

 40
0.0
 41
0.0
 42
0.0
 43
0.0
 44
0.0
 45
0.0
 46
0.0
 47
0.0
 48
0.0
 49
0.0
140
0.0
141
0.0
142
1.0
143
1.0
 70
   688
 72
     0
 73
     0
 74
     5
  7

 75
    16
147
1.0
148
0.0
149
0.0
100
AcDbLayout
  1
Layout1
 70
     1
 71
     1
 10
0.0
 20
0.0
 11
420.0
 21
297.0
 12
0.0
 22
0.0
 32
0.0
 14
1.000000000000000E+20
 24
1.000000000000000E+20
 34
1.000000000000000E+20
 15
-1.000000000000000E+20
 25
-1.000000000000000E+20
 35
-1.000000000000000E+20
146
0.0
 13
0.0
 23
0.0
 33
0.0
 16
1.0
 26
0.0
 36
0.0
 17
0.0
 27
1.0
 37
0.0
 76
     0
330
1B
  0
LAYOUT
  5
26
102
{ACAD_REACTORS
330
1A
102
}
330
1A
100
AcDbPlotSettings
  1

  2
none_device
  4

  6

 40
0.0
 41
0.0
 42
0.0
 43
0.0
 44
0.0
 45
0.0
 46
0.0
 47
0.0
 48
0.0
 49
0.0
140
0.0
141
0.0
142
1.0
143
1.0
 70
   688
 72
     0
 73
     0
 74
     5
  7

 75
    16
147
1.0
148
0.0
149
0.0
100
AcDbLayout
  1
Layout2
 70
     1
 71
     2
 10
0.0
 20
0.0
 11
0.0
 21
0.0
 12
0.0
 22
0.0
 32
0.0
 14
0.0
 24
0.0
 34
0.0
 15
0.0
 25
0.0
 35
0.0
146
0.0
 13
0.0
 23
0.0
 33
0.0
 16
1.0
 26
0.0
 36
0.0
 17
0.0
 27
1.0
 37
0.0
 76
     0
330
23
  0
LAYOUT
  5
22
102
{ACAD_REACTORS
330
1A
102
}
330
1A
100
AcDbPlotSettings
  1

  2
none_device
  4

  6

 40
0.0
 41
0.0
 42
0.0
 43
0.0
 44
0.0
 45
0.0
 46
0.0
 47
0.0
 48
0.0
 49
0.0
140
0.0
141
0.0
142
1.0
143
1.0
 70
  1712
 72
     0
 73
     0
 74
     0
  7

 75
     0
147
1.0
148
0.0
149
0.0
100
AcDbLayout
  1
Model
 70
     1
 71
     0
 10
0.0
 20
0.0
 11
1485.0
 21
1050.0
 12
0.0
 22
0.0
 32
0.0
 14
0.0
 24
0.0
 34
0.0
 15
1485.0
 25
1050.0
 35
0.0
146
0.0
 13
0.0
 23
0.0
 33
0.0
 16
1.0
 26
0.0
 36
0.0
 17
0.0
 27
1.0
 37
0.0
 76
     0
330
1F
331
29
  0
MLINESTYLE
  5
18
102
{ACAD_REACTORS
330
17
102
}
330
17
100
AcDbMlineStyle
  2
Standard
 70
     0
  3

 62
   256
 51
90.0
 52
90.0
 71
     2
 49
0.5
 62
   256
  6
BYLAYER
 49
-0.5
 62
   256
  6
BYLAYER
  0
ACDBPLACEHOLDER
  5
F
102
{ACAD_REACTORS
330
E
102
}
330
E
  0
SCALE
  5
42F
102
{ACAD_REACTORS
330
42E
102
}
330
42E
100
AcDbScale
 70
     0
300
1:1
140
1.0
141
1.0
290
     1
  0
SCALE
  5
430
102
{ACAD_REACTORS
330
42E
102
}
330
42E
100
AcDbScale
 70
     0
300
1:2
140
1.0
141
2.0
290
     0
  0
SCALE
  5
431
102
{ACAD_REACTORS
330
42E
102
}
330
42E
100
AcDbScale
 70
     0
300
1:4
140
1.0
141
4.0
290
     0
  0
SCALE
  5
432
102
{ACAD_REACTORS
330
42E
102
}
330
42E
100
AcDbScale
 70
     0
300
1:5
140
1.0
141
5.0
290
     0
  0
SCALE
  5
433
102
{ACAD_REACTORS
330
42E
102
}
330
42E
100
AcDbScale
 70
     0
300
1:8
140
1.0
141
8.0
290
     0
  0
SCALE
  5
434
102
{ACAD_REACTORS
330
42E
102
}
330
42E
100
AcDbScale
 70
     0
300
1:10
140
1.0
141
10.0
290
     0
  0
SCALE
  5
435
102
{ACAD_REACTORS
330
42E
102
}
330
42E
100
AcDbScale
 70
     0
300
1:16
140
1.0
141
16.0
290
     0
  0
SCALE
  5
436
102
{ACAD_REACTORS
330
42E
102
}
330
42E
100
AcDbScale
 70
     0
300
1:20
140
1.0
141
20.0
290
     0
  0
SCALE
  5
437
102
{ACAD_REACTORS
330
42E
102
}
330
42E
100
AcDbScale
 70
     0
300
1:30
140
1.0
141
30.0
290
     0
  0
SCALE
  5
438
102
{ACAD_REACTORS
330
42E
102
}
330
42E
100
AcDbScale
 70
     0
300
1:40
140
1.0
141
40.0
290
     0
  0
SCALE
  5
439
102
{ACAD_REACTORS
330
42E
102
}
330
42E
100
AcDbScale
 70
     0
300
1:50
140
1.0
141
50.0
290
     0
  0
SCALE
  5
43A
102
{ACAD_REACTORS
330
42E
102
}
330
42E
100
AcDbScale
 70
     0
300
1:100
140
1.0
141
100.0
290
     0
  0
SCALE
  5
43B
102
{ACAD_REACTORS
330
42E
102
}
330
42E
100
AcDbScale
 70
     0
300
2:1
140
2.0
141
1.0
290
     0
  0
SCALE
  5
43C
102
{ACAD_REACTORS
330
42E
102
}
330
42E
100
AcDbScale
 70
     0
300
4:1
140
4.0
141
1.0
290
     0
  0
SCALE
  5
43D
102
{ACAD_REACTORS
330
42E
102
}
330
42E
100
AcDbScale
 70
     0
300
8:1
140
8.0
141
1.0
290
     0
  0
SCALE
  5
43E
102
{ACAD_REACTORS
330
42E
102
}
330
42E
100
AcDbScale
 70
     0
300
10:1
140
10.0
141
1.0
290
     0
  0
SCALE
  5
43F
102
{ACAD_REACTORS
330
42E
102
}
330
42E
100
AcDbScale
 70
     0
300
100:1
140
100.0
141
1.0
290
     0
  0
SCALE
  5
440
102
{ACAD_REACTORS
330
42E
102
}
330
42E
100
AcDbScale
 70
     0
300
1/128" = 1'-0"
140
0.0078125
141
12.0
290
     0
  0
SCALE
  5
441
102
{ACAD_REACTORS
330
42E
102
}
330
42E
100
AcDbScale
 70
     0
300
1/64" = 1'-0"
140
0.015625
141
12.0
290
     0
  0
SCALE
  5
442
102
{ACAD_REACTORS
330
42E
102
}
330
42E
100
AcDbScale
 70
     0
300
1/32" = 1'-0"
140
0.03125
141
12.0
290
     0
  0
SCALE
  5
443
102
{ACAD_REACTORS
330
42E
102
}
330
42E
100
AcDbScale
 70
     0
300
1/16" = 1'-0"
140
0.0625
141
12.0
290
     0
  0
SCALE
  5
444
102
{ACAD_REACTORS
330
42E
102
}
330
42E
100
AcDbScale
 70
     0
300
3/32" = 1'-0"
140
0.09375
141
12.0
290
     0
  0
SCALE
  5
445
102
{ACAD_REACTORS
330
42E
102
}
330
42E
100
AcDbScale
 70
     0
300
1/8" = 1'-0"
140
0.125
141
12.0
290
     0
  0
SCALE
  5
446
102
{ACAD_REACTORS
330
42E
102
}
330
42E
100
AcDbScale
 70
     0
300
3/16" = 1'-0"
140
0.1875
141
12.0
290
     0
  0
SCALE
  5
447
102
{ACAD_REACTORS
330
42E
102
}
330
42E
100
AcDbScale
 70
     0
300
1/4" = 1'-0"
140
0.25
141
12.0
290
     0
  0
SCALE
  5
448
102
{ACAD_REACTORS
330
42E
102
}
330
42E
100
AcDbScale
 70
     0
300
3/8" = 1'-0"
140
0.375
141
12.0
290
     0
  0
SCALE
  5
449
102
{ACAD_REACTORS
330
42E
102
}
330
42E
100
AcDbScale
 70
     0
300
1/2" = 1'-0"
140
0.5
141
12.0
290
     0
  0
SCALE
  5
44A
102
{ACAD_REACTORS
330
42E
102
}
330
42E
100
AcDbScale
 70
     0
300
3/4" = 1'-0"
140
0.75
141
12.0
290
     0
  0
SCALE
  5
44B
102
{ACAD_REACTORS
330
42E
102
}
330
42E
100
AcDbScale
 70
     0
300
1" = 1'-0"
140
1.0
141
12.0
290
     0
  0
SCALE
  5
44C
102
{ACAD_REACTORS
330
42E
102
}
330
42E
100
AcDbScale
 70
     0
300
1-1/2" = 1'-0"
140
1.5
141
12.0
290
     0
  0
SCALE
  5
44D
102
{ACAD_REACTORS
330
42E
102
}
330
42E
100
AcDbScale
 70
     0
300
3" = 1'-0"
140
3.0
141
12.0
290
     0
  0
SCALE
  5
44E
102
{ACAD_REACTORS
330
42E
102
}
330
42E
100
AcDbScale
 70
     0
300
6" = 1'-0"
140
6.0
141
12.0
290
     0
  0
SCALE
  5
44F
102
{ACAD_REACTORS
330
42E
102
}
330
42E
100
AcDbScale
 70
     0
300
1'-0" = 1'-0"
140
12.0
141
12.0
290
     0
  0
DICTIONARYVAR
  5
45B
102
{ACAD_REACTORS
330
454
102
}
330
454
100
DictionaryVariables
280
     0
  1
1:1
  0
ENDSEC
  0
EOF
